<?xml version="1.0" standalone="no"?>
<!DOCTYPE svg PUBLIC "-//W3C//DTD SVG 1.1//EN" "http://www.w3.org/Graphics/SVG/1.1/DTD/svg11.dtd" >
<svg xmlns="http://www.w3.org/2000/svg">
<metadata>
<json>
<![CDATA[
{
	"fontFamily": "bicon",
	"majorVersion": 1,
	"minorVersion": 0,
	"copyright": "ThemeBucket",
	"fontURL": "http://bicon.lab.themebucket.net/",
	"description": "Free font icon by Theme Bucket\nFont generated by IcoMoon.",
	"designer": "Dulal Khan",
	"designerURL": "http://themebucket.net/",
	"license": "MIT",
	"version": "Version 1.0",
	"fontId": "bicon",
	"psName": "bicon",
	"subFamily": "Regular",
	"fullName": "bicon"
}
]]>
</json>
</metadata>
<defs>
<font id="bicon" horiz-adv-x="1024">
<font-face units-per-em="1024" ascent="960" descent="-64" />
<missing-glyph horiz-adv-x="1024" />
<glyph unicode="&#x20;" horiz-adv-x="0" d="" />
<glyph unicode="&#xe900;" glyph-name="accordion-horizontal" data-tags="accordion-horizontal" horiz-adv-x="1408" d="M219.232-30.048c6.016-20.128 24.992-34.176 46.080-34.176 4.416 0 8.832 0.64 13.088 1.856l262.88 75.136c12.448 3.552 22.72 11.776 28.928 23.136 6.176 11.328 7.552 24.416 3.84 36.736l-217.376 724.928c-7.296 24.352-34.624 39.328-59.168 32.352l-262.88-75.104c-12.448-3.552-22.72-11.744-28.928-23.136-6.208-11.328-7.584-24.416-3.872-36.768l217.408-724.96zM33.792 716.352c2.048 3.776 5.472 6.528 9.6 7.712l262.88 75.104c1.408 0.384 2.848 0.576 4.32 0.576 7.072 0 13.408-4.672 15.424-11.36l217.408-724.96c1.248-4.128 0.768-8.448-1.28-12.224-2.080-3.776-5.504-6.528-9.632-7.712l-262.88-75.136c-8.192-2.368-17.312 2.752-19.712 10.784l-217.44 724.96c-1.216 4.128-0.768 8.48 1.312 12.256zM1374.272 751.296l-256.448 78.272c-24.544 7.456-52.256-7.328-59.84-31.68l-223.584-721.76c-3.808-12.256-2.56-25.28 3.456-36.672 6.016-11.328 16.096-19.68 28.352-23.424l256.48-78.304c4.544-1.376 9.248-2.080 13.984-2.080 21.152 0 39.552 13.6 45.824 33.792l223.584 721.76c3.808 12.256 2.56 25.28-3.456 36.672-6.016 11.36-16.096 19.648-28.352 23.424zM1375.52 700.672l-223.584-721.76c-2.592-8.256-11.712-13.056-19.936-10.56l-256.48 78.304c-4.064 1.216-7.392 4-9.408 7.808-2.016 3.776-2.432 8.128-1.184 12.192l223.584 721.76c2.048 6.624 8.352 11.232 15.328 11.232 1.536 0 3.104-0.224 4.608-0.672l256.48-78.272c4.064-1.216 7.392-4 9.408-7.776 2.048-3.872 2.432-8.224 1.184-12.256zM704 0v928c0 8.832-7.168 16-16 16s-16-7.168-16-16v-928c0-8.832 7.168-16 16-16s16 7.168 16 16z" />
<glyph unicode="&#xe901;" glyph-name="accordion-vertical" data-tags="accordion-vertical" d="M128 960c-8.832 0-16-7.168-16-16s7.168-16 16-16h736c8.832 0 16 7.168 16 16s-7.168 16-16 16h-736zM976 800h-928c-26.464 0-48-21.536-48-48v-608c0-26.464 21.536-48 48-48h928c26.464 0 48 21.536 48 48v608c0 26.464-21.536 48-48 48zM992 144c0-8.8-7.2-16-16-16h-928c-8.8 0-16 7.2-16 16v608c0 8.8 7.2 16 16 16h928c8.8 0 16-7.2 16-16v-608zM864-32h-736c-8.832 0-16-7.168-16-16s7.168-16 16-16h736c8.832 0 16 7.168 16 16s-7.168 16-16 16z" />
<glyph unicode="&#xe902;" glyph-name="alarm-clock" data-tags="alarm-clock" d="M512.352 800.992c-238.208 0-432-193.792-432-432 0-110.464 42.016-211.040 110.464-287.488l-117.088-117.088c-6.24-6.24-6.24-16.384 0-22.624 3.136-3.136 7.232-4.672 11.328-4.672s8.192 1.568 11.328 4.672l116.544 116.544c77.728-74.944 183.2-121.344 299.456-121.344 116.192 0 221.568 46.336 299.296 121.184l113.664-117.312c3.136-3.232 7.296-4.864 11.456-4.864 4 0 8.032 1.504 11.136 4.512 6.336 6.144 6.496 16.256 0.384 22.624l-114.56 118.208c68.512 76.48 110.592 177.12 110.592 287.648 0 238.208-193.792 432-432 432zM512.352-31.008c-220.576 0-400 179.424-400 400s179.424 400 400 400 400-179.424 400-400-179.456-400-400-400zM280.8 928c53.472 0 99.712-34.784 115.072-86.528 2.496-8.48 11.328-13.344 19.904-10.784 8.48 2.528 13.28 11.424 10.784 19.904-19.392 65.408-77.952 109.408-145.76 109.408-84.16 0-152.64-68.48-152.64-152.64 0-36.128 12.704-70.144 36.768-98.432 3.168-3.712 7.648-5.632 12.192-5.632 3.68 0 7.36 1.248 10.368 3.808 6.72 5.728 7.52 15.84 1.824 22.56-19.072 22.4-29.152 49.28-29.152 77.696 0.032 66.528 54.144 120.64 120.64 120.64zM834.656 709.408c2.976-2.4 6.528-3.552 10.048-3.552 4.672 0 9.28 2.016 12.448 5.952 22.528 27.84 34.432 60.896 34.432 95.584 0 84.16-68.48 152.64-152.64 152.64-67.136 0-125.536-43.456-145.344-108.128-2.56-8.448 2.176-17.376 10.624-20 8.544-2.592 17.408 2.176 20 10.624 15.68 51.104 61.792 85.472 114.752 85.472 66.496 0 120.64-54.112 120.64-120.64 0-27.296-9.44-53.376-27.328-75.456-5.568-6.88-4.512-16.928 2.368-22.496zM528 688c-8.832 0-16-7.168-16-16v-285.44l-138.272-128.896c-6.464-6.016-6.816-16.16-0.8-22.624 3.168-3.392 7.424-5.088 11.712-5.088 3.904 0 7.808 1.408 10.912 4.288l143.36 133.632c3.232 3.072 5.088 7.296 5.088 11.744v292.384c0 8.832-7.168 16-16 16z" />
<glyph unicode="&#xe903;" glyph-name="alien" data-tags="alien" horiz-adv-x="896" d="M504.608 224.48c11.744-1.408 23.264-2.080 34.528-2.080 71.584 0 136.64 28.192 183.104 79.392 54.592 60.096 79.552 145.44 70.176 242.304-1.536 14.72-12.352 26.24-28.096 28.224-86.176 10.336-163.808-18.048-217.632-77.344-54.592-60.096-79.552-145.44-70.176-242.272 1.472-14.688 12.288-26.24 28.096-28.224zM570.336 473.472c40.352 44.448 96.96 68.896 159.424 68.896 10.016 0 20.256-0.608 30.944-3.392 8.288-85.76-13.792-162.336-62.208-215.712-40.352-44.416-96.96-68.896-159.392-68.896-10.016 0-20.256 0.608-30.976 3.392-8.288 85.76 13.792 162.336 62.208 215.712zM354.72-25.44c24.928-24.864 58.048-38.56 93.28-38.56s68.352 13.696 93.28 38.56l223.488 222.944c85.44 85.248 132.064 198.624 131.232 319.168-0.832 120.576-49.056 233.312-135.744 317.408-83.68 81.216-194.592 125.92-312.256 125.92s-228.576-44.704-312.224-125.92c-86.72-84.096-134.944-196.832-135.776-317.408s45.76-233.92 131.232-319.168l223.488-222.944zM158.048 811.136c77.664 75.36 180.64 116.864 289.952 116.864s212.288-41.504 289.952-116.864c80.512-78.112 125.248-182.752 126.016-294.656s-42.496-217.152-121.824-296.288l-223.488-222.944c-37.76-37.664-103.584-37.664-141.344 0l-223.488 222.912c-79.328 79.136-122.592 184.384-121.824 296.288s45.536 216.576 126.048 294.688zM349.824 222.4c11.264 0 22.784 0.672 36.352 2.304 13.952 1.792 24.736 13.312 26.464 30.016 9.184 94.848-15.808 180.192-70.368 240.288-46.464 51.2-111.488 79.392-183.104 79.392-11.264 0-22.784-0.672-36.288-2.304-13.984-1.76-24.8-13.248-26.528-29.984-9.184-94.848 15.808-180.192 70.368-240.32 46.464-51.2 111.488-79.392 183.104-79.392zM128.48 540.512c10.432 1.248 20.672 1.856 30.688 1.856 62.464 0 119.072-24.48 159.424-68.896 48.416-53.344 70.528-129.952 61.952-217.216-75.36-9.088-143.296 15.488-190.112 67.040-48.448 53.344-70.56 129.952-61.952 217.216z" />
<glyph unicode="&#xe904;" glyph-name="alien-gun" data-tags="alien-gun" horiz-adv-x="1248" d="M79.648 384c44.096 0 80 35.904 80 80s-35.904 80-80 80-80-35.904-80-80 35.872-80 80-80zM79.648 512c26.464 0 48-21.536 48-48s-21.536-48-48-48-48 21.536-48 48 21.536 48 48 48zM765.632 576c-61.76 0-112-50.24-112-112s50.24-112 112-112 112 50.24 112 112-50.24 112-112 112zM765.632 384c-44.096 0-80 35.904-80 80s35.904 80 80 80 80-35.904 80-80-35.872-80-80-80zM1152.288 544c-0.544 0-0.992-0.256-1.504-0.288-39.712 107.424-157.216 191.264-305.184 216.352 1.376 2.368 2.4 4.96 2.4 7.936v64c0 8.832-7.168 16-16 16s-16-7.168-16-16v-64c0-1.408 0.448-2.688 0.8-4-20.768 2.4-41.888 4-63.552 4-0.416 0-1.248-0.032-1.248-0.032v160.032c0 8.832-7.168 16-16 16s-16-7.168-16-16v-160c0-0.352 0.192-0.672 0.192-1.024-23.008-1.376-45.6-4.288-67.616-8.416 2.016 2.688 3.424 5.824 3.424 9.44v64c0 8.832-7.168 16-16 16s-16-7.168-16-16v-64c0-5.888 3.328-10.848 8.096-13.6-110.976-25.344-204.672-84.576-253.92-163.872-26.24 25.472-60.224 43.488-99.392 49.088-23.36 3.264-38.784-12.992-38.784-36.928v-122.688h-32c-8.832 0-16-7.168-16-16s7.168-16 16-16h32v-122.688c0-25.792 15.904-37.312 31.616-37.312 0.768 0 4.704 0.288 5.44 0.384 39.776 5.696 74.24 23.872 100.832 49.536 66.304-107.168 213.76-177.92 375.36-177.92 9.504 0 18.816 0.576 28.16 1.056 0.128-1.92 0.512-3.904 1.376-5.76l71.648-154.848c18.080-40.16 59.648-64.384 103.232-64.384 14.368 0 28.96 2.656 42.976 8.192 28.416 11.296 50.176 32.544 61.216 59.808 10.496 25.888 9.92 54.144-1.824 80.224l-65.504 130.848c-0.384 0.768-1.056 1.28-1.536 1.952 63.744 33.728 113.888 80.384 143.328 134.88h16c52.992 0 96.064 43.072 96.064 96s-43.104 96.032-96.096 96.032zM271.648 304v16c0 0 0.48-0.352 0.864-0.672l-0.864-15.328zM272.608 320.064c-0.32 1.056-0.608 2.752-0.608 5.248v277.376c0 3.52 0.928 5.248 2.24 5.248 72.864-10.432 125.76-70.944 125.76-143.936 0-72.8-53.568-133.344-127.392-143.936zM965.856 200.832l65.248-130.272c7.872-17.44 8.224-36.8 1.088-54.496-7.744-19.104-23.136-34.048-43.36-42.080-40.864-16.16-88.096 1.536-105.28 39.712l-69.376 149.984c54.56 5.984 105.536 19.808 150.976 39.968 0.224-0.928 0.256-1.888 0.704-2.816zM753.248 192c-155.328 0-295.776 68.736-353.248 171.68 19.968 28.64 32 62.976 32 100.32 0 37.504-11.936 71.936-31.84 100.64 57.6 102.784 197.92 171.36 353.088 171.36 209.76 0 380.416-122.016 380.416-272s-170.688-272-380.416-272zM1152.288 384h-1.6c9.472 25.536 14.976 52.288 14.976 80 0 16.096-2.208 31.776-5.504 47.2 31.584-3.936 56.224-30.592 56.224-63.2-0.032-35.296-28.768-64-64.096-64z" />
<glyph unicode="&#xe905;" glyph-name="anchor" data-tags="anchor" horiz-adv-x="1088" d="M16 416h80.64c6.496-235.904 195.936-426.4 431.36-434.752v-13.248c0-8.832 7.168-16 16-16s16 7.168 16 16v13.248c235.424 8.352 424.864 198.848 431.36 434.752h80.64c6.464 0 12.32 3.904 14.784 9.888s1.088 12.864-3.456 17.44l-96 96c-6.24 6.24-16.384 6.24-22.624 0l-96-96c-4.576-4.576-5.952-11.456-3.456-17.44s8.288-9.888 14.752-9.888h79.36c-6.496-218.24-181.6-394.432-399.36-402.752v594.752h96c8.832 0 16 7.168 16 16s-7.168 16-16 16h-96v91.104c54.56 7.488 96.864 53.888 96.864 110.464 0 61.76-50.24 112-112 112s-112-50.24-112-112c0-55.968 41.408-102.080 95.136-110.304v-91.264h-96c-8.832 0-16-7.168-16-16s7.168-16 16-16h96v-594.752c-217.792 8.32-392.864 184.512-399.36 402.752h79.36c6.464 0 12.32 3.904 14.784 9.888s1.088 12.864-3.456 17.44l-96 96c-6.24 6.24-16.384 6.24-22.624 0l-96-96c-4.576-4.576-5.952-11.456-3.456-17.44s8.288-9.888 14.752-9.888zM976 505.376l57.376-57.376h-114.752l57.376 57.376zM464.864 841.568c0 44.096 35.872 80 80 80s80-35.904 80-80-35.872-80-80-80-80 35.904-80 80zM112 505.376l57.376-57.376h-114.752l57.376 57.376z" />
<glyph unicode="&#xe906;" glyph-name="android" data-tags="android" horiz-adv-x="864" d="M640 672h-416c-26.464 0-48-21.536-48-48v-416c0-26.464 21.536-48 48-48h48v-160c0-35.296 28.704-64 64-64s64 28.704 64 64v160h64v-160c0-35.296 28.704-64 64-64s64 28.704 64 64v160h48c26.464 0 48 21.536 48 48v416c0 26.464-21.536 48-48 48zM368 0c0-17.632-14.336-32-32-32s-32 14.368-32 32v160h64v-160zM560 0c0-17.632-14.336-32-32-32s-32 14.368-32 32v160h64v-160zM656 208c0-8.832-7.2-16-16-16h-416c-8.8 0-16 7.168-16 16v416c0 8.832 7.2 16 16 16h416c8.8 0 16-7.168 16-16v-416zM432 960c-141.152 0-256-114.848-256-256h32c0 123.52 100.512 224 224 224s224-100.48 224-224h32c0 141.152-114.848 256-256 256zM80 672c-35.296 0-64-28.704-64-64v-224c0-35.296 28.704-64 64-64s64 28.704 64 64v224c0 35.296-28.704 64-64 64zM112 384c0-17.632-14.336-32-32-32s-32 14.368-32 32v224c0 17.632 14.336 32 32 32s32-14.368 32-32v-224zM784 672c-35.296 0-64-28.704-64-64v-224c0-35.296 28.704-64 64-64s64 28.704 64 64v224c0 35.296-28.704 64-64 64zM816 384c0-17.632-14.336-32-32-32s-32 14.368-32 32v224c0 17.632 14.336 32 32 32s32-14.368 32-32v-224zM409.6 784c0 31.744-25.856 57.6-57.6 57.6s-57.6-25.856-57.6-57.6 25.856-57.6 57.6-57.6 57.6 25.856 57.6 57.6zM326.4 784c0 14.112 11.456 25.6 25.6 25.6s25.6-11.488 25.6-25.6-11.488-25.6-25.6-25.6-25.6 11.488-25.6 25.6zM569.6 784c0 31.744-25.856 57.6-57.6 57.6s-57.6-25.856-57.6-57.6 25.856-57.6 57.6-57.6 57.6 25.856 57.6 57.6zM486.4 784c0 14.112 11.456 25.6 25.6 25.6s25.6-11.488 25.6-25.6-11.488-25.6-25.6-25.6-25.6 11.488-25.6 25.6z" />
<glyph unicode="&#xe907;" glyph-name="apple" data-tags="apple" d="M512 961.12c-282.944 0-513.088-230.208-513.088-513.12s230.144-513.12 513.088-513.12 513.088 230.208 513.088 513.12-230.144 513.12-513.088 513.12zM512-30.88c-264.064 0-478.912 214.816-478.912 478.88s214.848 478.88 478.912 478.88 478.912-214.816 478.912-478.88-214.848-478.88-478.912-478.88zM759.616 350.848c-41.568 21.664-65.92 54.144-68.544 91.424-2.656 37.472 17.504 74.464 55.392 101.568 3.872 2.688 7.296 7.616 7.968 12.256 0.704 4.704-0.832 10.176-3.84 13.92-40.48 50.464-92.544 61.056-129.12 61.056-20.672 0-42.144-3.584-60.48-10.144-5.184-1.856-9.952-3.68-14.368-5.376-16.704-6.464-26.272-10.24-38.208-6.784-3.904 1.12-8.416 3.040-13.6 5.216-16.512 6.848-41.408 17.216-73.984 17.216-16.672 0-33.952-2.72-51.296-8.096-52-16.032-92.16-59.328-107.424-115.904-15.392-57.024-7.36-131.008 21.408-197.92 11.744-27.296 26.144-53.056 42.784-76.576 30.944-43.776 63.328-65.056 99.104-65.056 2.816 0 5.696 0.128 8.576 0.416 16.128 1.568 27.552 6.304 38.624 10.912 9.312 3.872 18.976 7.872 32.928 10.56 24.8 4.736 39.264-0.672 58.912-8.224 11.392-4.384 24.352-9.312 40.544-12.384 70.784-13.376 137.44 89.824 161.152 153.6l1.344 3.52c6.592 16.736-5.728 23.776-7.872 24.8zM611.328 202.56c-13.152 2.496-24.064 6.656-34.624 10.688-21.344 8.16-45.696 15.872-77.536 9.856-17.44-3.328-29.248-8.224-39.648-12.576-9.952-4.128-17.76-7.36-28.8-8.448-26.464-2.624-50.592 13.856-76.416 50.336-15.264 21.568-28.48 45.28-39.296 70.368-25.472 59.168-33.056 126.4-19.84 175.456 12.224 45.152 43.808 79.584 84.544 92.128 14.080 4.352 27.936 6.592 41.184 6.592 25.76 0 45.184-8.096 60.8-14.592 6.624-2.752 12.384-5.12 17.312-6.496 20.864-6.048 39.296-0.288 59.968 7.744 4.224 1.632 8.672 3.36 13.6 5.12 14.688 5.248 32.064 8.128 48.928 8.128 25.888 0 61.408-6.624 91.328-35.968-38.816-33.088-59.040-76.416-55.872-121.056 3.136-44.768 29.952-84.992 74.432-112.352-23.296-57.568-75.456-133.376-120.064-124.928zM521.888 640h0.192c66.528 0 126.656 57.6 131.328 127.168 0.48 6.976 0.352 22.816-1.024 27.776-1.632 5.696-6.016 10.208-11.712 11.84-1.568 0.448-3.424 0.768-5.024 0.768-2.368 0-14.464-1.536-15.488-1.728-55.008-9.856-115.328-50.4-117.824-116.832-0.256-6.72 0.32-27.456 1.28-35.136 1.024-8.608 9.632-13.856 18.272-13.856zM536.48 687.040c1.6 43.136 41.952 73.792 82.912 83.392-0.032-0.768-0.096-1.504-0.128-2.208-3.104-46.176-40.096-87.264-82.624-95.104-0.192 5.76-0.256 11.36-0.16 13.92z" />
<glyph unicode="&#xe908;" glyph-name="arrow-left-rounded" data-tags="arrow-left-rounded" d="M512-64c282.304 0 512 229.696 512 512s-229.696 512-512 512-512-229.696-512-512 229.696-512 512-512zM512 928c264.672 0 480-215.328 480-480s-215.328-480-480-480-480 215.328-480 480 215.328 480 480 480zM578.208 281.6c3.136-3.136 7.232-4.672 11.328-4.672s8.192 1.568 11.328 4.672c6.24 6.24 6.24 16.384 0 22.624l-143.776 143.776 143.744 143.776c6.24 6.24 6.24 16.384 0 22.624s-16.384 6.24-22.624 0l-155.072-155.072c-6.24-6.24-6.24-16.384 0-22.624l155.072-155.104z" />
<glyph unicode="&#xe909;" glyph-name="arrow-left-square" data-tags="arrow-left-square" d="M578.208 281.6c3.136-3.136 7.232-4.672 11.328-4.672s8.192 1.568 11.328 4.672c6.24 6.24 6.24 16.384 0 22.624l-143.776 143.776 143.744 143.776c6.24 6.24 6.24 16.384 0 22.624s-16.384 6.24-22.624 0l-155.072-155.072c-6.24-6.24-6.24-16.384 0-22.624l155.072-155.104zM976-64c26.464 0 48 21.536 48 48v928c0 26.464-21.536 48-48 48h-928c-26.464 0-48-21.536-48-48v-928c0-26.464 21.536-48 48-48h928zM32-16v928c0 8.832 7.2 16 16 16h928c8.8 0 16-7.168 16-16v-928c0-8.832-7.2-16-16-16h-928c-8.8 0-16 7.168-16 16z" />
<glyph unicode="&#xe90a;" glyph-name="arrow-right-rounded" data-tags="arrow-right-rounded" d="M512-64c282.304 0 512 229.696 512 512s-229.696 512-512 512-512-229.696-512-512 229.696-512 512-512zM512 928c264.672 0 480-215.328 480-480s-215.328-480-480-480-480 215.328-480 480 215.328 480 480 480zM423.168 281.6c3.136-3.136 7.232-4.672 11.328-4.672s8.192 1.568 11.328 4.672l155.072 155.072c6.24 6.24 6.24 16.384 0 22.624l-155.104 155.104c-6.24 6.24-16.384 6.24-22.624 0s-6.24-16.384 0-22.624l143.744-143.776-143.744-143.776c-6.272-6.24-6.272-16.352 0-22.624z" />
<glyph unicode="&#xe90b;" glyph-name="arrow-right-square" data-tags="arrow-right-square" d="M423.168 281.6c3.136-3.136 7.232-4.672 11.328-4.672s8.192 1.568 11.328 4.672l155.072 155.072c6.24 6.24 6.24 16.384 0 22.624l-155.104 155.104c-6.24 6.24-16.384 6.24-22.624 0s-6.24-16.384 0-22.624l143.744-143.776-143.744-143.776c-6.272-6.24-6.272-16.352 0-22.624zM0 912v-928c0-26.464 21.536-48 48-48h928c26.464 0 48 21.536 48 48v928c0 26.464-21.536 48-48 48h-928c-26.464 0-48-21.536-48-48zM992 912v-928c0-8.832-7.2-16-16-16h-928c-8.8 0-16 7.168-16 16v928c0 8.832 7.2 16 16 16h928c8.8 0 16-7.168 16-16z" />
<glyph unicode="&#xe90c;" glyph-name="article" data-tags="article" horiz-adv-x="1216" d="M1168 960h-1120c-26.464 0-48-21.536-48-48v-928c0-26.464 21.536-48 48-48h1120c26.464 0 48 21.536 48 48v928c0 26.464-21.536 48-48 48zM1184-16c0-8.8-7.2-16-16-16h-1120c-8.8 0-16 7.2-16 16v928c0 8.8 7.2 16 16 16h1120c8.8 0 16-7.2 16-16v-928zM560 448h-352c-26.464 0-48-21.536-48-48v-256c0-26.464 21.536-48 48-48h352c26.464 0 48 21.536 48 48v256c0 26.464-21.536 48-48 48zM576 144c0-8.8-7.2-16-16-16h-352c-8.8 0-16 7.2-16 16v256c0 8.8 7.2 16 16 16h352c8.8 0 16-7.2 16-16v-256zM1008 800h-800c-26.464 0-48-21.536-48-48v-160c0-26.464 21.536-48 48-48h800c26.464 0 48 21.536 48 48v160c0 26.464-21.536 48-48 48zM1024 592c0-8.8-7.2-16-16-16h-800c-8.8 0-16 7.2-16 16v160c0 8.8 7.2 16 16 16h800c8.8 0 16-7.2 16-16v-160zM1024 416h-320c-8.832 0-16-7.168-16-16s7.168-16 16-16h320c8.832 0 16 7.168 16 16s-7.168 16-16 16zM1024 288h-320c-8.832 0-16-7.168-16-16s7.168-16 16-16h320c8.832 0 16 7.168 16 16s-7.168 16-16 16zM1024 160h-320c-8.832 0-16-7.168-16-16s7.168-16 16-16h320c8.832 0 16 7.168 16 16s-7.168 16-16 16z" />
<glyph unicode="&#xe90d;" glyph-name="badge1" data-tags="badge1" horiz-adv-x="736" d="M368 808.736c-114.688 0-208-93.312-208-208s93.312-208 208-208 208 93.312 208 208-93.312 208-208 208zM368 424.736c-97.024 0-176 78.944-176 176s78.976 176 176 176 176-78.944 176-176-78.976-176-176-176zM691.744 728.768c7.040 29.472 3.712 55.264-9.792 75.168-13.408 19.744-35.872 32.256-65.44 36.64-8.864 59.584-51.968 89.504-111.776 75.2-31.328 52.384-85.28 63.488-136.736 27.232-51.488 36.256-105.376 25.152-136.736-27.264-59.936 14.304-102.944-15.616-111.808-75.2-29.536-4.384-52.032-16.896-65.44-36.608-13.472-19.904-16.8-45.696-9.76-75.168-25.76-15.392-41.952-35.744-47.136-59.456-5.376-24.608 1.504-51.136 19.904-77.312-18.4-26.176-25.28-52.704-19.904-77.312 5.184-23.712 21.376-44.064 47.136-59.456-7.040-29.472-3.712-55.264 9.792-75.168 13.408-19.744 35.872-32.256 65.44-36.64 8.832-59.584 51.872-89.472 111.776-75.2 31.424-52.416 85.312-63.52 136.736-27.232 20.416-14.368 40.8-21.664 60.768-21.664 30.4 0 57.024 17.248 75.968 48.896 59.808-14.272 102.912 15.616 111.776 75.2 29.568 4.384 52.032 16.896 65.44 36.64 13.504 19.904 16.8 45.664 9.792 75.168 25.76 15.392 41.952 35.744 47.136 59.456 5.376 24.608-1.504 51.136-19.904 77.312 18.4 26.176 25.28 52.704 19.904 77.312-5.184 23.712-21.376 44.064-47.136 59.456zM686.496 581.856c17.728-21.6 24.992-42.464 21.088-60.352-4.736-21.792-25.312-35.936-41.728-43.936-7.2-3.488-10.688-11.776-8.224-19.36 5.76-17.504 10.016-42.176-2.176-60.16-12.128-17.856-36.32-22.944-54.464-24.032-8.064-0.48-14.496-6.912-15.008-14.976-1.76-28.448-12.288-62.368-52.544-62.368-9.568 0-20.224 1.92-31.68 5.664-7.648 2.56-15.872-0.992-19.36-8.192-9.536-19.52-26.56-42.784-53.632-42.784-15.456 0-32.96 7.648-50.624 22.144-2.976 2.432-6.56 3.616-10.144 3.616s-7.2-1.216-10.144-3.616c-17.664-14.496-35.168-22.112-50.624-22.144-27.072 0-44.096 23.264-53.632 42.784-3.52 7.2-11.712 10.72-19.36 8.192-11.456-3.776-22.112-5.664-31.68-5.664-40.256 0-50.784 33.92-52.544 62.368-0.512 8.064-6.944 14.496-15.008 14.976-18.144 1.12-42.336 6.176-54.464 24.032-12.224 17.984-7.936 42.656-2.176 60.16 2.464 7.584-1.024 15.872-8.224 19.36-16.416 8-36.96 22.144-41.728 43.936-3.904 17.888 3.36 38.752 21.088 60.352 4.832 5.888 4.832 14.4 0 20.288-17.728 21.6-24.992 42.464-21.088 60.352 4.736 21.792 25.312 35.936 41.728 43.936 7.2 3.488 10.688 11.776 8.224 19.36-5.76 17.504-10.016 42.176 2.176 60.16 12.128 17.856 36.32 22.944 54.464 24.032 8.064 0.48 14.496 6.912 15.008 14.976 1.728 28.48 12.256 62.368 52.512 62.368 9.568 0 20.224-1.92 31.68-5.664 7.616-2.464 15.84 1.024 19.36 8.192 9.536 19.52 26.56 42.784 53.632 42.784 15.456 0 32.96-7.648 50.624-22.144 5.952-4.832 14.368-4.832 20.32 0 17.664 14.496 35.168 22.144 50.624 22.144 27.072 0 44.096-23.264 53.632-42.784 3.488-7.168 11.712-10.656 19.36-8.192 11.456 3.776 22.112 5.664 31.68 5.664 40.256 0 50.784-33.92 52.544-62.368 0.512-8.064 6.944-14.496 15.008-14.976 18.144-1.12 42.336-6.176 54.464-24.032 12.224-17.984 7.936-42.656 2.176-60.16-2.464-7.584 1.024-15.872 8.224-19.36 16.416-8 36.96-22.144 41.728-43.936 3.904-17.888-3.36-38.752-21.088-60.352-4.832-5.888-4.832-14.4 0-20.288zM160 224c-8.832 0-16-7.168-16-16v-222.272c0-18.272 10.368-34.816 27.52-43.2 18.816-9.152 40.384-6.944 56.576 5.728l138.784 108.48 140.096-109.504c9.568-7.488 21.056-11.328 32.736-11.328 8.064 0 16.544 1.856 24.224 5.6 17.152 8.352 28.096 24.928 28.096 43.2v223.296c0 8.832-7.168 16-16 16s-16-7.168-16-16v-223.264c0-8.704-7.168-12.992-10.144-14.464-6.048-2.912-14.752-3.904-22.528 2.176l-63.36 49.856v119.456c0 8.832-7.168 16-16 16s-16-7.168-16-16v-94.464l-54.784 42.368c-5.76 4.544-14.016 4.544-19.744 0l-53.472-41.696v93.792c0 8.832-7.168 16-16 16s-16-7.168-16-16v-118.816l-63.52-49.472c-7.776-6.048-16.768-5.12-22.816-2.176-2.976 1.44-9.664 5.76-9.664 14.432v222.272c0 8.832-7.168 16-16 16zM457.504 692.64l-110.656-147.136-68.8 70.592c-6.208 6.336-16.352 6.432-22.624 0.288-6.336-6.176-6.464-16.288-0.32-22.624l81.856-80.416c3.008-3.136 7.136-1.344 11.456-1.344 0.352 0 0.672 0 1.024 0 4.672 0 8.928-0.864 11.744 2.848l121.888 160.32c5.312 7.072 3.904 16.224-3.168 21.504-7.008 5.344-17.088 3.072-22.4-4.032z" />
<glyph unicode="&#xe90e;" glyph-name="badge2" data-tags="badge2" horiz-adv-x="704" d="M704 608c0 194.080-157.92 352-352 352s-352-157.92-352-352c0-114.464 55.168-216 140-280.352l-112.096-293.696c-2.016-5.312-1.088-11.328 2.464-15.744s9.056-6.72 14.848-5.792l123.488 18.4 82.016-89.664c3.104-3.296 7.392-5.152 11.84-5.152 0.992 0 1.984 0.096 3.008 0.288 5.44 1.024 9.984 4.832 11.936 9.984l85.344 223.584 85.344-223.584c1.984-5.152 6.496-8.96 11.936-9.984 0.992-0.192 1.984-0.288 3.008-0.288 4.448 0 8.736 1.856 11.808 5.184l82.016 89.664 123.488-18.4c5.76-0.832 11.328 1.408 14.88 5.824 3.552 4.48 4.48 10.464 2.4 15.776l-118.528 305.568c76.224 64.608 124.8 160.864 124.8 268.384zM32 608c0 176.448 143.552 320 320 320s320-143.552 320-320-143.552-320-320-320-320 143.552-320 320zM320 251.456l19.872-36.736-85.92-232.768-68.832 76.8c-3.584 3.872-7.936 5.792-13.472 4.992l-104.448-15.616 99.744 260.896c47.808-29.664 97.344-48.096 156.672-51.872l-3.616-5.568c0-0.032 0-0.096 0-0.128zM657.984 48.128l-104.672 15.616c-5.472 0.8-10.592-1.12-14.176-4.992l-70.272-76.8-104.832 274.656c70.016 2.368 134.88 25.056 188.8 62.688l105.152-271.168zM528 608c0 97.024-78.976 176-176 176s-176-78.976-176-176 78.976-176 176-176 176 78.976 176 176zM208 608c0 79.392 64.608 144 144 144s144-64.608 144-144-64.608-144-144-144-144 64.608-144 144z" />
<glyph unicode="&#xe90f;" glyph-name="badge3" data-tags="badge3" horiz-adv-x="736" d="M0-15.84c0-18.208 10.080-34.624 26.336-42.816 6.88-3.488 14.304-5.216 21.696-5.216 9.984 0 19.936 3.168 28.384 9.344l291.584 214.272 291.584-214.272c14.624-10.784 33.856-12.352 50.048-4.16 16.288 8.224 26.368 24.64 26.368 42.848v623.84c0 8.832-7.168 16-16 16s-16-7.168-16-16v-623.84c0-6.144-3.296-11.488-8.768-14.272-5.504-2.784-11.744-2.272-16.672 1.376l-301.056 221.248c-5.632 4.16-13.312 4.16-18.944 0l-301.056-221.248c-4.928-3.648-11.136-4.16-16.672-1.376s-8.832 8.096-8.832 14.272v623.84c0 8.832-7.168 16-16 16s-16-7.168-16-16v-623.84zM48 672h640c26.464 0 48 21.536 48 48v192c0 26.464-21.536 48-48 48h-640c-26.464 0-48-21.536-48-48v-192c0-26.464 21.536-48 48-48zM32 912c0 8.832 7.2 16 16 16h640c8.8 0 16-7.168 16-16v-192c0-8.832-7.2-16-16-16h-640c-8.8 0-16 7.168-16 16v192z" />
<glyph unicode="&#xe910;" glyph-name="bamboo" data-tags="bamboo" horiz-adv-x="864" d="M537.952 503.68c-42.272 191.84 0.64 435.008 1.056 437.472 0.832 4.672-0.448 9.472-3.456 13.12-3.040 3.616-7.552 5.728-12.288 5.728h-192c-4.8 0-9.376-2.176-12.448-5.92-3.040-3.744-4.224-8.672-3.232-13.376 0.416-1.92 39.616-193.568-0.16-442.176-0.704-4.64 0.608-9.344 3.616-12.896 3.072-3.584 7.52-5.632 12.224-5.632h192c0.224-0.032 0.48 0 0.64 0 8.832 0 16 7.168 16 16-0.032 2.784-0.704 5.408-1.952 7.68zM503.488 512h-153.632c29.728 202.528 9.44 362.208 0.544 416h153.984c-9.152-60.064-33.44-250.528-0.896-416zM319.072-58.368c3.040-3.584 7.488-5.632 12.192-5.632h192c0.224-0.032 0.48 0 0.64 0 8.832 0 16 7.168 16 16 0 2.784-0.672 5.408-1.952 7.68-42.272 191.84 0.64 435.008 1.056 437.472 0.832 4.672-0.448 9.472-3.456 13.12-3.040 3.616-7.552 5.728-12.288 5.728h-192c-4.8 0-9.376-2.176-12.448-5.92-3.040-3.744-4.224-8.672-3.232-13.376 0.416-1.92 39.616-193.568-0.16-442.176-0.704-4.608 0.608-9.344 3.648-12.896zM350.4 384h153.984c-9.184-60.064-33.472-250.528-0.896-416h-153.632c29.728 202.528 9.472 362.208 0.544 416zM284.096 482.656c4.48 2.976 7.168 7.968 7.168 13.344 0 1.568-1.76 156.192-153.056 205.216-4.48 1.472-9.28 0.864-13.312-1.568-3.968-2.4-6.688-6.464-7.424-11.040-0.224-1.344-20.064-135.296 151.584-207.328 2.016-0.864 4.096-1.28 6.208-1.28 3.072 0 6.176 0.896 8.832 2.656zM148.704 663.040c77.984-34.336 100.928-102.784 107.712-140.608-88.416 45.92-105.248 108.64-107.712 140.608zM115.488 519.584c-33.792 0-67.424-8.448-100.032-25.088-4.16-2.112-7.168-5.952-8.288-10.496-1.088-4.544-0.16-9.312 2.56-13.12 1.888-2.592 46.624-63.328 142.944-63.328 34.72 0 72.032 8.032 110.88 23.936 4.928 2.016 8.576 6.4 9.632 11.648s-0.576 10.72-4.384 14.496c-2.528 2.528-62.976 61.952-153.312 61.952zM152.672 439.584c-51.936 0-85.376 20.608-102.688 35.36 21.664 8.384 43.584 12.64 65.504 12.64 48.224 0 87.232-20.544 109.696-35.968-25.408-8-49.696-12.032-72.512-12.032zM569.28 870.912c-4.48-2.976-7.168-7.968-7.168-13.344 0-1.568 1.76-156.192 153.056-205.216 1.632-0.544 3.296-0.768 4.928-0.768 2.912 0 5.792 0.8 8.352 2.336 3.968 2.432 6.688 6.464 7.424 11.072 0.224 1.344 20.064 135.296-151.584 207.328-4.96 2.144-10.528 1.568-15.008-1.408zM704.672 690.56c-77.984 34.336-100.928 102.784-107.712 140.608 88.384-45.888 105.248-108.608 107.712-140.608zM740.128 834.016c36.416 0 72.704 8.352 107.904 24.832 4.416 2.048 7.648 6.016 8.768 10.752s0.032 9.76-2.976 13.6c-1.984 2.56-50.4 62.816-154.304 62.816-37.504 0-77.856-8-119.904-23.744-5.184-1.952-9.024-6.464-10.080-11.936-1.056-5.44 0.8-11.072 4.896-14.848 2.752-2.496 68.192-61.472 165.696-61.472-0.032 0-0.032 0 0 0zM699.52 914.016c56.768 0 93.536-20.416 112.768-35.296-23.84-8.448-48.032-12.704-72.192-12.704h-0.032c-52.704 0-95.424 20.384-120.288 35.904 27.936 8.064 54.656 12.096 79.744 12.096z" />
<glyph unicode="&#xe911;" glyph-name="battery" data-tags="battery" horiz-adv-x="1120" d="M48 160h304c8.832 0 16 7.168 16 16s-7.168 16-16 16h-304c-8.8 0-16 7.168-16 16v480c0 8.832 7.2 16 16 16h304c8.832 0 16 7.168 16 16s-7.168 16-16 16h-304c-26.464 0-48-21.536-48-48v-480c0-26.464 21.536-48 48-48zM992 576v112c0 26.464-21.536 48-48 48h-304c-8.832 0-16-7.168-16-16s7.168-16 16-16h304c8.8 0 16-7.168 16-16v-480c0-8.832-7.2-16-16-16h-336c-8.832 0-16-7.168-16-16s7.168-16 16-16h336c26.464 0 48 21.536 48 48v80h80c26.464 0 48 21.536 48 48v192c0 26.464-21.536 48-48 48h-80zM1088 528v-192c0-8.832-7.2-16-16-16h-80v224h80c8.8 0 16-7.168 16-16zM413.088-55.456c1.92-0.736 3.904-1.12 5.856-1.12 5.632 0 11.008 2.976 13.92 8.096l340.8 600.576c2.816 4.96 2.784 11.008-0.096 15.936-2.848 4.928-8.128 7.968-13.824 7.968h-226.432l97.984 371.36c1.984 7.552-1.792 15.456-8.896 18.656-7.072 3.168-15.488 0.8-19.872-5.696l-368.096-551.424c-3.296-4.928-3.584-11.232-0.768-16.448 2.784-5.184 8.192-8.448 14.080-8.448h254.304l-98.688-420.896c-1.824-7.776 2.336-15.68 9.728-18.56zM537.824 396.352c1.12 4.768 0 9.76-3.040 13.6s-7.648 6.048-12.544 6.048h-244.576l298.24 446.752-78.848-298.688c-1.28-4.8-0.256-9.92 2.784-13.856s7.712-6.208 12.704-6.208h219.744l-272.384-479.968 77.92 332.32z" />
<glyph unicode="&#xe912;" glyph-name="beach-seat" data-tags="beach-seat" horiz-adv-x="1248" d="M1248-48c0 8.832-7.168 16-16 16h-346.016l86.432 232.448c0.192 0.512 0.096 1.024 0.256 1.536 30.848 10.24 59.456 26.784 83.808 49.312l124.192 114.912c6.464 6.016 6.88 16.128 0.864 22.624-6.016 6.528-16.128 6.88-22.624 0.896l-124.192-113.92c-36.736-34.080-84.64-51.808-134.784-51.808h-516.768c-0.544 0-1.056-1.12-1.568-1.12-0.704 0-1.376-0.576-2.080-0.672-49.76-0.8-98.592-17.92-137.824-48.48l-137.696-107.2c-7.008-5.408-8.256-15.52-2.816-22.528 3.168-4.032 7.872-6.208 12.64-6.208 3.424 0 6.912 1.088 9.824 3.36l137.696 107.072c27.872 21.664 61.408 35.040 96.32 39.648l-81.824-219.872h-259.84c-8.832 0-16-7.168-16-16s7.168-16 16-16h1216c8.832 0 16 7.168 16 16zM935.488 193.984l-83.648-225.984h-253.856l82.528 224h219.392c12.032 0 23.904 0.16 35.584 1.984zM392.544 192h253.856l-82.528-224h-253.888l82.56 224zM832.768 960c-119.616 0-246.688-45.28-331.584-118.144-12.416-10.656-18.080-26.688-15.232-42.88 2.976-16.768 14.304-30.4 30.336-36.416l321.568-120.992-151.136-349.088c-3.488-8.096 0.224-17.536 8.352-21.056 2.048-0.896 4.224-1.312 6.336-1.312 6.176 0 12.064 3.616 14.688 9.632l151.776 350.464 320.384-120.544c5.504-2.048 11.232-3.104 17.024-3.104 13.6 0 26.656 5.792 35.84 15.872 8.896 9.824 13.152 22.496 11.904 35.648-22.624 236.64-195.424 401.92-420.256 401.92zM1217.44 543.968c-3.072-3.36-7.616-5.376-12.16-5.376-1.952 0-3.872 0.352-5.792 1.056l-671.936 252.832c-5.344 1.984-9.088 6.496-10.080 12.032-0.512 2.944-0.64 8.576 4.576 13.024 79.36 68.16 198.432 110.464 310.72 110.464 207.68 0 367.392-153.344 388.384-372.928 0.512-5.216-1.76-8.928-3.712-11.104z" />
<glyph unicode="&#xe913;" glyph-name="bicycle" data-tags="bicycle" horiz-adv-x="1696" d="M1360 603.168c-38.048 0-74.464-6.656-108.608-18.368l-26.336 63.072c129.952 46.528 273.376 28 386.176-51.36 2.784-1.984 6.016-2.912 9.184-2.912 5.024 0 9.984 2.368 13.12 6.784 5.088 7.264 3.328 17.216-3.904 22.304-121.76 85.632-276.768 105.472-416.928 54.72l-104.576 250.592h139.872c8.832 0 16 7.168 16 16s-7.168 16-16 16h-163.904c-5.344 0-10.336-2.688-13.312-7.136-2.976-4.48-3.52-10.080-1.44-15.040l97.632-233.824h-525.216c-0.608 0-1.152-0.352-1.76-0.416v128.416h64c8.832 0 16 7.168 16 16s-7.168 16-16 16h-160c-8.832 0-16-7.168-16-16s7.168-16 16-16h64v-159.872c0-0.608 0.416-1.12 0.48-1.696l-30.4-40.32c-179.232 118.208-416.8 95.648-570.208-56.352-6.272-6.208-6.304-16.384-0.096-22.624 3.136-3.168 7.232-4.736 11.36-4.736 4.064 0 8.128 1.536 11.264 4.64 142.144 140.864 361.952 162.144 528.352 53.504l-41.408-54.912c-52.384 33.76-114.528 53.568-181.344 53.568-185.28 0-336-150.72-336-336s150.72-336 336-336c181.504 0 329.472 144.736 335.424 324.832h191.648c0 0 0 0 0 0s0 0 0 0c0.032 0 0.064 0.032 0.096 0.032 2.688 0.032 5.216 0.8 7.52 2.080 0.192 0.096 0.384 0.064 0.576 0.16 1.6 0.96 2.848 2.272 3.968 3.616 0.16 0.192 0.448 0.288 0.608 0.512l0.128 0.16c0 0 0 0 0 0.032l305.92 405.632 39.744-95.168c-116.352-52.928-197.632-170.016-197.632-305.92 0-185.28 150.72-336 336-336s336 150.72 336 336-150.72 336-336 336zM625.024 639.232l209.856-351.232h-163.936c-6.080 98.464-54.528 185.472-127.552 243.008l81.632 108.224zM638.944 288h-278.848l164.032 217.472c65.312-51.648 108.8-129.44 114.816-217.472zM336-36.832c-167.616 0-304 136.384-304 304s136.384 304 304 304c59.584 0 115.040-17.472 161.984-47.2l-182.784-242.336c-3.648-4.832-4.256-11.328-1.536-16.736 2.72-5.472 8.288-8.896 14.336-8.896h311.424c-5.92-162.432-139.552-292.832-303.424-292.832zM864.64 300.608l-218.816 366.208 3.904 5.184h495.008l-280.096-371.392zM1360-36.832c-167.616 0-304 136.384-304 304 0 122.656 73.152 228.288 177.984 276.32l118.848-284.672c2.56-6.144 8.512-9.856 14.752-9.856 2.048 0 4.16 0.416 6.176 1.248 8.128 3.36 12 12.736 8.608 20.896l-118.656 284.192c30.304 10.144 62.592 15.872 96.256 15.872 167.616 0 304-136.384 304-304s-136.352-304-303.968-304z" />
<glyph unicode="&#xe914;" glyph-name="blog" data-tags="blog" d="M976 960h-928c-26.464 0-48-21.536-48-48v-256c0-26.464 21.536-48 48-48h928c26.464 0 48 21.536 48 48v256c0 26.464-21.536 48-48 48zM992 656c0-8.8-7.2-16-16-16h-928c-8.8 0-16 7.2-16 16v256c0 8.8 7.2 16 16 16h928c8.8 0 16-7.2 16-16v-256zM1008 560c-8.832 0-16-7.168-16-16v-560c0-8.8-7.2-16-16-16h-928c-8.8 0-16 7.2-16 16v560c0 8.832-7.168 16-16 16s-16-7.168-16-16v-560c0-26.464 21.536-48 48-48h928c26.464 0 48 21.536 48 48v560c0 8.832-7.168 16-16 16zM432 96c26.464 0 48 21.536 48 48v256c0 26.464-21.536 48-48 48h-256c-26.464 0-48-21.536-48-48v-256c0-26.464 21.536-48 48-48h256zM160 144v256c0 8.8 7.2 16 16 16h256c8.8 0 16-7.2 16-16v-256c0-8.8-7.2-16-16-16h-256c-8.8 0-16 7.2-16 16zM576 384h288c8.832 0 16 7.168 16 16s-7.168 16-16 16h-288c-8.832 0-16-7.168-16-16s7.168-16 16-16zM576 256h288c8.832 0 16 7.168 16 16s-7.168 16-16 16h-288c-8.832 0-16-7.168-16-16s7.168-16 16-16zM576 128h288c8.832 0 16 7.168 16 16s-7.168 16-16 16h-288c-8.832 0-16-7.168-16-16s7.168-16 16-16z" />
<glyph unicode="&#xe915;" glyph-name="blue-tooth" data-tags="blue-tooth" horiz-adv-x="608" d="M304 449.632v-10.336l-297.184-287.232c-6.336-6.144-6.528-16.256-0.384-22.624s16.256-6.528 22.624-0.384l274.944 265.728v-410.72c0-19.744 11.84-37.248 30.176-44.576 5.856-2.336 11.936-3.456 17.92-3.456 12.864 0 25.408 5.216 34.688 14.944l197.12 207.232c18.112 19.072 17.472 49.408-1.472 67.648l-226.976 218.656 227.136 219.52c18.656 18.048 19.456 48.192 1.792 67.2l-197.216 212.064c-13.536 14.592-34.272 19.232-52.704 12-18.496-7.296-30.464-24.832-30.464-44.704v-416.544l-275.84 265.728c-6.336 6.080-16.48 5.952-22.624-0.448-6.144-6.368-5.952-16.48 0.448-22.624l298.016-287.072zM336 910.592c0 10.112 7.776 13.952 10.144 14.88 1.088 0.416 3.36 1.152 6.176 1.152 3.424 0 7.616-1.088 11.392-5.152l197.216-212.064c5.888-6.336 5.6-16.384-0.608-22.4l-224.32-216.8v440.384zM336 418.816l224.224-216c6.304-6.080 6.528-16.192 0.48-22.56l-197.12-207.232c-6.912-7.264-15.168-4.8-17.536-3.84-2.368 0.928-10.048 4.8-10.048 14.848v434.784z" />
<glyph unicode="&#xe916;" glyph-name="board" data-tags="board" d="M1024 336v576c0 26.464-21.536 48-48 48h-928c-26.464 0-48-21.536-48-48v-576c0-26.464 21.536-48 48-48h128.064l-158.496-329.056c-3.84-7.968-0.48-17.504 7.488-21.344 2.24-1.088 4.608-1.6 6.944-1.6 5.952 0 11.68 3.328 14.432 9.056l160 332.224c1.664 3.488 1.76 7.232 0.896 10.72h641.216c-0.768-3.072-0.896-6.336 0.32-9.504l128-332.224c2.464-6.368 8.512-10.24 14.944-10.24 1.92 0 3.872 0.352 5.76 1.056 8.256 3.2 12.352 12.448 9.184 20.672l-127.264 330.24h96.512c26.464 0 48 21.536 48 48zM32 336v576c0 8.832 7.168 16 16 16h928c8.832 0 16-7.168 16-16v-576c0-8.832-7.168-16-16-16h-928c-8.832 0-16 7.168-16 16z" />
<glyph unicode="&#xe917;" glyph-name="body" data-tags="body" horiz-adv-x="1056" d="M22.24 350.24c8.672 1.664 14.368 10.048 12.704 18.72-0.224 1.152-21.216 115.968 52.544 204.864 3.68 4.448 4.672 10.528 2.656 15.936-0.416 1.088-41.536 111.328 11.008 193.536 34.464 53.92 102.016 84.704 200.768 91.52 3.616 0.256 7.040 1.728 9.696 4.192 0.512 0.448 50.56 45.888 100.288 48.992 8.832 0.576 15.52 8.16 14.976 16.96s-8.608 16-16.96 14.976c-52.064-3.264-100.992-41.216-115.584-53.568-106.56-8.352-180.608-43.936-220.128-105.824-52.416-82.048-26.624-183.040-16.992-213.376-76.544-99.136-54.656-219.072-53.696-224.224 1.472-7.68 8.16-12.992 15.712-12.992 0.992 0.032 2.016 0.096 3.008 0.288zM265.728-59.008c3.136-3.296 7.36-4.992 11.616-4.992 3.936 0 7.904 1.44 10.976 4.384 6.432 6.048 6.72 16.192 0.64 22.624-23.456 24.832-18.784 105.28-10.080 152.384 0.16 3.392 3.424 84.576-26.432 158.080-20.768 51.136-23.296 119.616-23.296 149.568 0.224 5.248 0.32 10.56 0.256 15.936-0.096 8.672-7.040 15.68-15.712 15.84-8.256 0-15.872-6.592-16.288-15.264-0.032-0.96-0.32-6.976-0.32-16.576-4.736-96.832-60.192-172.576-60.768-173.344-5.28-7.104-3.808-17.12 3.296-22.368 7.072-5.344 17.088-3.84 22.368 3.264 1.696 2.208 25.92 35.168 44.864 85.952 3.744-18.784 8.896-37.664 15.968-55.072 26.88-66.208 24.192-142.368 24.384-142.336-2.592-13.6-23.776-133.28 18.528-178.080zM981.824 800.576c-39.552 61.888-113.6 97.472-220.128 105.824-14.624 12.352-63.52 50.304-115.584 53.6-8.224 0.992-16.416-6.144-16.96-14.976-0.576-8.8 6.144-16.416 14.976-16.96 49.504-3.136 99.808-48.576 100.288-49.024 2.656-2.432 6.080-3.904 9.696-4.16 98.656-6.816 166.176-37.568 200.672-91.36 52.512-81.952 11.52-192.64 11.104-193.728-2.048-5.376-1.024-11.456 2.656-15.904 73.44-88.544 52.768-203.712 52.544-204.864-1.632-8.672 4.064-17.056 12.736-18.72 1.024-0.192 2.016-0.288 3.008-0.288 7.52 0 14.208 5.344 15.68 12.992 0.992 5.152 22.848 125.088-53.696 224.224 9.632 30.304 35.424 131.264-16.992 213.344zM849.152 316.48c18.944-50.784 43.168-83.712 44.864-85.952 5.312-7.104 15.328-8.608 22.368-3.264 7.104 5.248 8.544 15.296 3.296 22.368-0.608 0.768-56.032 76.512-60.768 173.344 0 9.6-0.288 15.584-0.32 16.576-0.416 8.672-7.52 15.2-16.288 15.264-8.672-0.16-15.616-7.2-15.712-15.84-0.032-5.44 0.032-10.816 0.256-16.128 0-30.016-2.496-98.272-23.296-149.376-29.856-73.536-26.592-154.688-26.144-160.352 8.48-44.832 13.184-125.216-10.336-150.112-6.080-6.432-5.792-16.576 0.64-22.624 3.040-2.944 6.976-4.384 10.944-4.384 4.256 0 8.48 1.696 11.616 4.992 42.304 44.768 21.088 164.576 18.784 175.808-0.032 0.736-3.040 77.728 24.096 144.608 7.104 17.408 12.256 36.288 16 55.072zM852.192 627.104c-8.832 0-16-7.168-16-16 0-87.712-72.768-159.104-162.24-159.104-51.616 0-99.040 23.424-130.048 64.352-6.048 7.936-19.424 7.968-25.504-0.032-31.008-40.864-78.432-64.32-130.048-64.32-89.44 0-162.24 71.36-162.24 159.104 0 8.832-7.168 16-16 16s-16-7.168-16-16c0-105.376 87.136-191.104 194.24-191.104 55.040 0 106.080 22.304 142.816 61.824 36.736-39.488 87.776-61.824 142.816-61.824 107.104 0 194.24 85.728 194.24 191.104-0.032 8.832-7.168 16-16.032 16zM669.92 786.592c-50.24-13.152-110.816-55.68-135.52-74.144-59.968 54.816-138.944 73.472-142.464 74.272-8.672 1.952-17.216-3.392-19.2-12-1.984-8.64 3.392-17.216 12-19.2 0.832-0.192 82.656-19.52 136.96-75.328 3.136-3.232 7.296-4.832 11.456-4.832 3.52 0 7.040 1.152 9.984 3.488 0.768 0.64 77.888 61.888 134.848 76.8 8.544 2.208 13.664 10.976 11.424 19.52-2.208 8.544-10.912 13.76-19.488 11.424z" />
<glyph unicode="&#xe918;" glyph-name="bond" data-tags="bond" d="M205.248 864c0-52.928 43.072-96 96-96s96 43.072 96 96-43.072 96-96 96-96-43.072-96-96zM365.248 864c0-35.296-28.704-64-64-64s-64 28.704-64 64 28.704 64 64 64 64-28.704 64-64zM30.272 529.056c0-44.096 35.904-80 80-80 32.256 0 59.936 19.264 72.576 46.816l139.456-26.56c-2.624-11.456-4.288-23.296-4.288-35.552 0-88.224 71.776-160 160-160 66.816 0 124.064 41.248 147.968 99.584l188.64-62.88c1.696-0.576 3.392-0.832 5.056-0.832 6.688 0 12.928 4.224 15.168 10.944 2.784 8.384-1.728 17.44-10.112 20.224l-189.728 63.232c1.824 9.664 3.008 19.52 3.008 29.696 0 88.224-71.776 160-160 160-15.392 0-29.984-2.88-44.064-6.944l-61.152 152.992c-3.296 8.224-12.64 12.224-20.8 8.928-8.192-3.296-12.192-12.608-8.928-20.8l61.184-152.992c-31.392-16.48-56.704-42.656-71.52-75.008l-142.656 27.2c0.032 0.672 0.192 1.28 0.192 1.984 0 44.096-35.904 80-80 80s-80-35.904-80-80.032zM478.016 561.792c70.592 0 128-57.408 128-128s-57.408-128-128-128-128 57.408-128 128 57.44 128 128 128zM110.272 577.056c26.464 0 48-21.536 48-48s-21.536-48-48-48-48 21.536-48 48 21.536 48 48 48zM160-64c88.224 0 160 71.776 160 160 0 40.864-15.872 77.824-41.184 106.144l78.816 81.984c6.112 6.368 5.92 16.512-0.448 22.624-6.4 6.112-16.512 5.92-22.624-0.448l-79.328-82.496c-26.688 19.936-59.424 32.192-95.232 32.192-88.224 0-160-71.776-160-160s71.776-160 160-160zM160 224c70.592 0 128-57.408 128-128s-57.408-128-128-128-128 57.408-128 128 57.408 128 128 128zM944 194.4c44.096 0 80 35.904 80 80s-35.904 80-80 80-80-35.904-80-80 35.904-80 80-80zM944 322.4c26.464 0 48-21.536 48-48s-21.536-48-48-48-48 21.536-48 48 21.536 48 48 48zM636.768 554.112c4.096 0 8.192 1.568 11.328 4.672l57.568 57.568c21.888-17.472 49.248-28.352 79.36-28.352 70.592 0 128 57.408 128 128s-57.408 128-128 128-128-57.408-128-128c0-28.928 10.016-55.328 26.24-76.8l-57.792-57.792c-6.24-6.24-6.24-16.384 0-22.624 3.104-3.104 7.2-4.672 11.296-4.672zM784.992 812c52.928 0 96-43.072 96-96s-43.072-96-96-96-96 43.072-96 96 43.072 96 96 96z" />
<glyph unicode="&#xe919;" glyph-name="book" data-tags="book" horiz-adv-x="736" d="M0-16c0-26.464 21.536-48 48-48h640c26.464 0 48 21.536 48 48v736c0 26.464-21.536 48-48 48h-576c-44.128 0-80 35.872-80 80s35.872 80 80 80h592c8.832 0 16 7.168 16 16s-7.168 16-16 16h-592c-61.76 0-112-50.24-112-112 0-3.936 0.224-7.808 0.608-11.648-0.384-1.376-0.608-2.848-0.608-4.352v-848zM32 769.696c20.352-20.8 48.672-33.696 80-33.696h576c8.8 0 16-7.2 16-16v-736c0-8.8-7.2-16-16-16h-640c-8.8 0-16 7.2-16 16v785.696zM704 864h-576c-8.832 0-16-7.168-16-16s7.168-16 16-16h576c8.832 0 16 7.168 16 16s-7.168 16-16 16z" />
<glyph unicode="&#xe91a;" glyph-name="bowl" data-tags="bowl" horiz-adv-x="1152" d="M1103.136 608h-523.776l324.896 324.864c6.24 6.24 6.24 16.384 0 22.624s-16.384 6.24-22.624 0l-347.52-347.488h-485.248c-13.216 0-25.984-5.472-35.136-15.072-8.96-9.44-13.568-21.728-12.896-34.592 10.592-211.008 122.4-406.944 287.488-508.64-0.032-0.576-0.32-1.088-0.32-1.696v-64c0-26.464 21.536-48 48-48h480c26.464 0 48 21.536 48 48v64c0 0.48-0.224 0.896-0.288 1.344 165.056 101.664 276.864 297.824 287.424 508.96 0.672 12.864-3.936 25.152-12.896 34.624-9.12 9.6-21.888 15.072-35.104 15.072zM32.768 559.968c-0.192 4 1.28 7.904 4.16 10.944 3.104 3.232 7.456 5.088 11.936 5.088h213.792c-0.064-0.576-0.32-1.056-0.32-1.632 0-243.008 73.792-421.152 209.152-510.368h-144.256c-168.416 91.776-283.904 285.888-294.464 495.968zM832-16c0-8.832-7.2-16-16-16h-480c-8.8 0-16 7.168-16 16v48h512v-48zM825.472 64h-287.36c-211.904 93.568-243.744 359.616-243.744 510.368 0 0.576-0.256 1.088-0.32 1.632h809.12c4.512 0 8.832-1.856 11.936-5.12 2.88-3.040 4.352-6.912 4.16-10.944-10.56-209.92-125.76-404.064-293.792-495.936z" />
<glyph unicode="&#xe91b;" glyph-name="brick-wall" data-tags="brick-wall" horiz-adv-x="1344" d="M48 672h352c26.464 0 48 21.536 48 48v192c0 26.464-21.536 48-48 48h-352c-26.464 0-48-21.536-48-48v-192c0-26.464 21.536-48 48-48zM32 912c0 8.832 7.168 16 16 16h352c8.832 0 16-7.168 16-16v-192c0-8.832-7.168-16-16-16h-352c-8.832 0-16 7.168-16 16v192zM992 720v192c0 26.464-21.536 48-48 48h-352c-26.464 0-48-21.536-48-48v-192c0-26.464 21.536-48 48-48h352c26.464 0 48 21.536 48 48zM576 720v192c0 8.832 7.168 16 16 16h352c8.832 0 16-7.168 16-16v-192c0-8.832-7.168-16-16-16h-352c-8.832 0-16 7.168-16 16zM1136 928h176c8.832 0 16 7.168 16 16s-7.168 16-16 16h-176c-26.464 0-48-21.536-48-48v-192c0-26.464 21.536-48 48-48h176c8.832 0 16 7.168 16 16s-7.168 16-16 16h-176c-8.832 0-16 7.168-16 16v192c0 8.832 7.168 16 16 16zM1296 576h-352c-26.464 0-48-21.536-48-48v-160c0-26.464 21.536-48 48-48h352c26.464 0 48 21.536 48 48v160c0 26.464-21.536 48-48 48zM1312 368c0-8.832-7.168-16-16-16h-352c-8.832 0-16 7.168-16 16v160c0 8.832 7.168 16 16 16h352c8.832 0 16-7.168 16-16v-160zM752 576h-352c-26.464 0-48-21.536-48-48v-160c0-26.464 21.536-48 48-48h352c26.464 0 48 21.536 48 48v160c0 26.464-21.536 48-48 48zM768 368c0-8.832-7.168-16-16-16h-352c-8.832 0-16 7.168-16 16v160c0 8.832 7.168 16 16 16h352c8.832 0 16-7.168 16-16v-160zM208 352h-176c-8.832 0-16-7.168-16-16s7.168-16 16-16h176c26.464 0 48 21.536 48 48v160c0 26.464-21.536 48-48 48h-176c-8.832 0-16-7.168-16-16s7.168-16 16-16h176c8.832 0 16-7.168 16-16v-160c0-8.832-7.168-16-16-16zM48-64h352c26.464 0 48 21.536 48 48v192c0 26.464-21.536 48-48 48h-352c-26.464 0-48-21.536-48-48v-192c0-26.464 21.536-48 48-48zM32 176c0 8.832 7.168 16 16 16h352c8.832 0 16-7.168 16-16v-192c0-8.832-7.168-16-16-16h-352c-8.832 0-16 7.168-16 16v192zM544 176v-192c0-26.464 21.536-48 48-48h352c26.464 0 48 21.536 48 48v192c0 26.464-21.536 48-48 48h-352c-26.464 0-48-21.536-48-48zM960 176v-192c0-8.832-7.168-16-16-16h-352c-8.832 0-16 7.168-16 16v192c0 8.832 7.168 16 16 16h352c8.832 0 16-7.168 16-16zM1136 192h176c8.832 0 16 7.168 16 16s-7.168 16-16 16h-176c-26.464 0-48-21.536-48-48v-192c0-26.464 21.536-48 48-48h176c8.832 0 16 7.168 16 16s-7.168 16-16 16h-176c-8.832 0-16 7.168-16 16v192c0 8.832 7.168 16 16 16z" />
<glyph unicode="&#xe91c;" glyph-name="brush" data-tags="brush" horiz-adv-x="736" d="M0 912v-256c0-26.464 21.536-48 48-48h640c26.464 0 48 21.536 48 48v256c0 26.464-21.536 48-48 48h-128c-8.832 0-16-7.168-16-16v-71.552l-41.632 79.008c-2.784 5.248-8.224 8.544-14.176 8.544h-440.192c-26.464 0-48-21.536-48-48zM144 784c8.832 0 16 7.168 16 16v128h96v-192c0-8.832 7.168-16 16-16s16 7.168 16 16v192h190.56l67.296-127.68c3.424-6.496 10.88-9.824 17.984-8.064 7.136 1.728 12.16 8.16 12.16 15.52v120.224h112c8.832 0 16-7.168 16-16v-256c0-8.832-7.168-16-16-16h-640c-8.832 0-16 7.168-16 16v256c0 8.832 7.168 16 16 16h80v-128c0-8.832 7.168-16 16-16zM0 432c0-26.464 21.536-48 48-48h186.336c23.328 0 45.76-10.112 61.504-27.776 15.392-17.216 22.784-39.648 20.32-61.632l-27.712-250.784c0-58.976 50.048-106.976 111.552-106.976s111.552 48.544 111.456 110.016l-27.616 247.584c-2.496 22.016 4.96 44.544 20.384 61.824 15.776 17.632 38.176 27.744 61.44 27.744h122.336c26.464 0 48 21.536 48 48v112c0 8.832-7.168 16-16 16s-16-7.168-16-16v-112c0-8.832-7.168-16-16-16h-122.336c-32.384 0-63.456-14.016-85.312-38.432-21.504-24.064-31.84-55.648-28.352-86.688l27.52-245.824c0-41.312-36.448-76.224-79.552-76.224-43.872 0-79.552 33.632-79.648 73.216l27.616 249.024c3.488 30.976-6.816 62.528-28.256 86.496-21.792 24.416-52.928 38.432-85.344 38.432h-186.336c-8.832 0-16 7.168-16 16v112c0 8.832-7.168 16-16 16s-16-7.168-16-16v-112z" />
<glyph unicode="&#xe91d;" glyph-name="brush-paint" data-tags="brush-paint" horiz-adv-x="1120" d="M973.376 939.776l-455.456-370.56c-6.848-5.568-7.904-15.648-2.304-22.496s15.648-7.936 22.496-2.304l455.456 370.56c22.72 18.464 55.808 17.216 77.024-2.912 20.992-19.936 23.328-52.032 5.376-74.656l-364.288-459.456c-5.504-6.912-4.32-16.992 2.592-22.464 2.944-2.368 6.432-3.488 9.92-3.488 4.704 0 9.376 2.080 12.544 6.048l364.288 459.456c28.32 35.68 24.704 86.304-8.416 117.76-32.832 31.2-84.128 33.12-119.232 4.512zM297.024-64c71.808 0 139.904 16.384 196.928 47.328 142.272 77.312 171.744 230.176 177.824 292.32 1.6 16.416-4.352 32.512-16.288 44.096l-147.936 143.872c-9.344 9.152-21.568 14.624-34.4 15.392-240.192 14.784-281.472-152.896-308.8-262.432l-1.408-5.76c-18.208-72.8-91.776-96.896-134.016-104.736-12.672-2.368-22.72-11.008-26.944-23.104-4.224-12.192-1.632-25.344 6.944-35.168 60.288-68.928 170.656-111.808 288.096-111.808zM32.192 72.576c0.608 1.76 2.080 2.016 2.592 2.112 49.792 9.28 136.672 38.304 159.2 128.448l1.44 5.76c26.56 106.528 59.648 239.104 248.288 239.104 8.832 0 17.952-0.288 27.456-0.864 5.088-0.32 10.208-2.656 14.048-6.4l147.936-143.904c4.928-4.8 7.392-11.392 6.752-18.048-5.568-57.056-32.448-197.344-161.248-267.328-52.352-28.416-115.168-43.456-181.632-43.456-106.816 0-210.432 39.616-264 100.928-1.248 1.408-1.12 2.752-0.832 3.648z" />
<glyph unicode="&#xe91e;" glyph-name="brush-roll" data-tags="brush-roll" horiz-adv-x="896" d="M768 720v192c0 26.464-21.536 48-48 48h-512c-26.464 0-48-21.536-48-48v-192c0-26.464 21.536-48 48-48h512c26.464 0 48 21.536 48 48zM192 720v192c0 8.832 7.168 16 16 16h512c8.832 0 16-7.168 16-16v-192c0-8.832-7.168-16-16-16h-512c-8.832 0-16 7.168-16 16zM48 800h33.888c8.832 0 16 7.168 16 16s-7.168 16-16 16h-33.888c-26.464 0-48-19.616-48-46.080v-229.696c0-26.464 21.536-44.224 48-44.224h384c8.832 0 16-10.944 16-19.776v-58.304c0-8.832 7.168-16 16-16s16 7.168 16 16v58.304c0 26.464-21.536 51.776-48 51.776h-384c-8.832 0-16 3.392-16 12.224v229.696c0 8.832 7.168 14.080 16 14.080zM848 834.304c-8.832 0-16-7.168-16-16s7.168-16 16-16h32c8.832 0 16 7.168 16 16s-7.168 16-16 16h-32zM576 304c0 26.496-21.504 48-48 48h-128c-26.496 0-48-21.504-48-48v-320c0-26.496 21.504-48 48-48h128c26.496 0 48 21.504 48 48v320zM544-16c0-8.832-7.168-16-16-16h-128c-8.832 0-16 7.168-16 16v320c0 8.832 7.168 16 16 16h128c8.832 0 16-7.168 16-16v-320z" />
<glyph unicode="&#xe91f;" glyph-name="bug" data-tags="bug" d="M-16 368c0-8.832 7.168-16 16-16h128c8.832 0 16 7.168 16 16s-7.168 16-16 16h-128c-8.832 0-16-7.168-16-16zM256 695.008l-101.344 95.36c-6.432 6.016-16.544 5.76-22.624-0.672-6.048-6.432-5.728-16.576 0.704-22.624l102.016-96c0.576-0.544 1.312-0.8 1.952-1.248-58.592-79.68-93.088-182.88-93.088-292.128 0-89.952 22.656-173.632 61.28-243.52l-94.688-94.688c-6.24-6.24-6.24-16.384 0-22.624 3.136-3.136 7.232-4.672 11.328-4.672s8.192 1.568 11.328 4.672l89.216 89.216c67.392-103.328 171.968-170.080 289.536-170.080s222.176 66.784 289.6 170.112l90.112-90.112c3.136-3.136 7.232-4.672 11.328-4.672s8.192 1.568 11.328 4.672c6.24 6.24 6.24 16.384 0 22.624l-95.584 95.584c34.912 63.136 56.288 137.632 60.16 217.792h113.44c8.832 0 16 7.168 16 16s-7.168 16-16 16h-112.736c-1.28 107.776-35.488 208.864-93.472 287.008 0.704 0.48 1.504 0.736 2.144 1.344l102.688 96c6.464 6.016 6.784 16.16 0.768 22.624s-16.16 6.784-22.624 0.768l-102.208-95.552c-19.68 22.688-41.952 42.336-65.824 59.584 0.032 0.448 0.256 0.896 0.256 1.344 0 29.632-15.488 56.512-41.568 77.6 0.992 0.64 2.080 1.088 2.944 1.952l96.48 96c6.272 6.24 6.304 16.352 0.064 22.624s-16.416 6.336-22.624 0.064l-96.48-96c-2.464-2.432-3.648-5.504-4.192-8.672-33.6 18.816-77.632 30.144-126.656 30.144-47.904 0-91.104-10.816-124.416-28.832-0.736 2.816-1.952 5.536-4.224 7.68l-101.792 96c-6.432 6.080-16.576 5.792-22.624-0.672s-5.76-16.576 0.672-22.624l101.792-96c0.352-0.352 0.8-0.448 1.184-0.768-26.656-21.216-42.56-48.448-42.56-78.496 0-1.632 0.352-3.232 0.832-4.768-22.368-16.736-43.232-35.744-61.824-57.344zM508.992 848.8c82.976 0 153.632-38.432 159.584-85.312-52.352-49.568-106.432-74.72-160.832-74.72 0 0 0 0 0 0-81.888 0-142.56 57.472-158.432 74.144 5.472 47.136 76.384 85.888 159.68 85.888zM338.912 728.288c28.544-26.4 88.928-71.488 168.864-71.488 0 0 0 0 0 0 1.44 0 2.816 0.224 4.224 0.256v-49.056c0-8.832 7.168-16 16-16s16 7.168 16 16v52.288c46.624 8.096 92.288 31.808 136.32 70.912 103.264-73.44 167.296-207.264 167.296-353.504 0-212.576-133.504-387.744-303.616-407.68v509.984c0 8.832-7.168 16-16 16s-16-7.168-16-16v-512c-0.128 0-0.256 0-0.384 0-185.28 0-336 183.776-336 409.696 0 143.776 62.496 276.544 163.296 350.592z" />
<glyph unicode="&#xe920;" glyph-name="bulb" data-tags="bulb" horiz-adv-x="704" d="M512 96h-288c-8.832 0-16-7.168-16-16s7.168-16 16-16h288c8.832 0 16 7.168 16 16s-7.168 16-16 16zM528 16c0 8.832-7.168 16-16 16h-288c-8.832 0-16-7.168-16-16s7.168-16 16-16h288c8.832 0 16 7.168 16 16zM288-32c-8.832 0-16-7.168-16-16s7.168-16 16-16h160c8.832 0 16 7.168 16 16s-7.168 16-16 16h-160zM544 144v19.552c0 81.088 29.632 161.568 85.664 232.768 48.64 61.76 74.336 135.84 74.336 214.304 0 192.672-157.92 349.376-352 349.376-13.28 0-26.816-0.736-40.16-2.208-155.904-17.152-285.44-141.12-308-294.784-15.84-107.968 18.112-214.688 93.216-292.8 61.216-63.744 94.944-142.912 94.944-222.944v-3.264c0-8.832 7.168-16 16-16h320c8.832 0 16 7.168 16 16zM288 512h-56c-30.88 0-56 28.576-56 58.88s25.12 56.928 56 56.928 56-22.688 56-52.992v-62.816zM384 160h-64v320h64v-320zM512 160h-96v320h56c48.544 0 88 42.912 88 90.88s-39.456 88.928-88 88.928-88-37.024-88-84.992v-62.816h-64v62.816c0 47.968-39.456 86.976-88 86.976s-88-42.944-88-90.912 39.456-90.88 88-90.88h56v-320h-64.256c-3.36 83.936-39.872 166.016-103.616 232.384-68.192 70.944-99.008 167.872-84.608 265.984 20.48 139.488 138.176 252.032 279.808 267.616 193.408 21.504 356.672-128.384 356.672-315.328 0-71.232-23.328-138.464-67.456-194.496-60.544-76.928-92.544-164.256-92.544-252.608v-3.552zM416 512v62.816c0 30.304 25.12 54.976 56 54.976s56-28.576 56-58.88-25.12-58.912-56-58.912h-56z" />
<glyph unicode="&#xe921;" glyph-name="calculation" data-tags="calculation" d="M0 528c0-26.464 21.536-48 48-48h384c26.464 0 48 21.536 48 48v384c0 26.464-21.536 48-48 48h-384c-26.464 0-48-21.536-48-48v-384zM32 912c0 8.8 7.2 16 16 16h384c8.8 0 16-7.2 16-16v-384c0-8.8-7.2-16-16-16h-384c-8.8 0-16 7.2-16 16v384zM1024 912c0 26.464-21.536 48-48 48h-384c-26.464 0-48-21.536-48-48v-384c0-26.464 21.536-48 48-48h384c26.464 0 48 21.536 48 48v384zM992 528c0-8.8-7.2-16-16-16h-384c-8.8 0-16 7.2-16 16v384c0 8.8 7.2 16 16 16h384c8.8 0 16-7.2 16-16v-384zM0-16c0-26.464 21.536-48 48-48h384c26.464 0 48 21.536 48 48v384c0 26.464-21.536 48-48 48h-384c-26.464 0-48-21.536-48-48v-384zM32 368c0 8.8 7.2 16 16 16h384c8.8 0 16-7.2 16-16v-384c0-8.8-7.2-16-16-16h-384c-8.8 0-16 7.2-16 16v384zM592-64h384c26.464 0 48 21.536 48 48v384c0 26.464-21.536 48-48 48h-384c-26.464 0-48-21.536-48-48v-384c0-26.464 21.536-48 48-48zM576 368c0 8.8 7.2 16 16 16h384c8.8 0 16-7.2 16-16v-384c0-8.8-7.2-16-16-16h-384c-8.8 0-16 7.2-16 16v384zM160 704h64v-64c0-8.832 7.168-16 16-16s16 7.168 16 16v64h64c8.832 0 16 7.168 16 16s-7.168 16-16 16h-64v64c0 8.832-7.168 16-16 16s-16-7.168-16-16v-64h-64c-8.832 0-16-7.168-16-16s7.168-16 16-16zM864 736h-160c-8.832 0-16-7.168-16-16s7.168-16 16-16h160c8.832 0 16 7.168 16 16s-7.168 16-16 16zM704 192h160c8.832 0 16 7.168 16 16s-7.168 16-16 16h-160c-8.832 0-16-7.168-16-16s7.168-16 16-16zM704 128h160c8.832 0 16 7.168 16 16s-7.168 16-16 16h-160c-8.832 0-16-7.168-16-16s7.168-16 16-16zM161.216 80c3.136-3.136 7.232-4.672 11.328-4.672s8.192 1.568 11.328 4.672l63.616 63.616 63.616-63.616c3.136-3.136 7.232-4.672 11.328-4.672s8.192 1.568 11.328 4.672c6.24 6.24 6.24 16.384 0 22.624l-63.68 63.616 63.616 63.616c6.24 6.24 6.24 16.384 0 22.624s-16.384 6.24-22.624 0l-63.616-63.616-63.616 63.616c-6.24 6.24-16.384 6.24-22.624 0s-6.24-16.384 0-22.624l63.616-63.616-63.616-63.616c-6.24-6.24-6.24-16.384 0-22.624z" />
<glyph unicode="&#xe922;" glyph-name="calendar" data-tags="calendar" d="M48 832h80c8.832 0 16 7.168 16 16s-7.168 16-16 16h-80c-26.464 0-48-21.536-48-48v-832c0-26.464 21.536-48 48-48h928c26.464 0 48 21.536 48 48v832c0 26.464-21.536 48-48 48h-80c-8.832 0-16-7.168-16-16s7.168-16 16-16h80c8.832 0 16-7.168 16-16v-176h-960v176c0 8.832 7.168 16 16 16zM992 608v-624c0-8.832-7.168-16-16-16h-928c-8.832 0-16 7.168-16 16v624h960zM608 832c8.832 0 16 7.168 16 16s-7.168 16-16 16h-192c-8.832 0-16-7.168-16-16s7.168-16 16-16h192zM336 96h96c12.352 0 23.488 4.8 32 12.48 8.512-7.68 19.648-12.48 32-12.48h96c26.464 0 48 21.536 48 48v96c0 7.616-1.952 14.72-5.088 21.088 6.368-3.136 13.472-5.088 21.088-5.088h96c26.464 0 48 21.536 48 48v96c0 26.464-21.536 48-48 48h-96c-12.352 0-23.488-4.8-32-12.48-8.512 7.68-19.648 12.48-32 12.48h-96c-12.352 0-23.488-4.8-32-12.48-8.512 7.68-19.648 12.48-32 12.48h-96c-26.464 0-48-21.536-48-48v-96c0-12.352 4.8-23.488 12.48-32-7.68-8.512-12.48-19.648-12.48-32v-96c0-26.464 21.536-48 48-48zM432 128h-96c-8.832 0-16 7.168-16 16v96c0 8.832 7.168 16 16 16h96c8.832 0 16-7.168 16-16v-96c0-8.832-7.168-16-16-16zM608 144c0-8.832-7.168-16-16-16h-96c-8.832 0-16 7.168-16 16v96c0 8.832 7.168 16 16 16h96c8.832 0 16-7.168 16-16v-96zM656 416h96c8.832 0 16-7.168 16-16v-96c0-8.832-7.168-16-16-16h-96c-8.832 0-16 7.168-16 16v96c0 8.832 7.168 16 16 16zM496 416h96c8.832 0 16-7.168 16-16v-96c0-8.832-7.168-16-16-16h-96c-8.832 0-16 7.168-16 16v96c0 8.832 7.168 16 16 16zM320 400c0 8.832 7.168 16 16 16h96c8.832 0 16-7.168 16-16v-96c0-8.832-7.168-16-16-16h-96c-8.832 0-16 7.168-16 16v96zM352 816v64c0 44.096-35.904 80-80 80s-80-35.904-80-80v-64c0-44.096 35.904-80 80-80s80 35.904 80 80zM224 816v64c0 26.464 21.536 48 48 48s48-21.536 48-48v-64c0-26.464-21.536-48-48-48s-48 21.536-48 48zM832 816v64c0 44.096-35.904 80-80 80s-80-35.904-80-80v-64c0-44.096 35.904-80 80-80s80 35.904 80 80zM704 816v64c0 26.464 21.536 48 48 48s48-21.536 48-48v-64c0-26.464-21.536-48-48-48s-48 21.536-48 48z" />
<glyph unicode="&#xe923;" glyph-name="camera" data-tags="camera" horiz-adv-x="1216" d="M48-64h1120c26.464 0 48 21.536 48 48v800c0 26.464-21.536 48-48 48h-1120c-26.464 0-48-21.536-48-48v-800c0-26.464 21.536-48 48-48zM32 784c0 8.832 7.2 16 16 16h1120c8.8 0 16-7.168 16-16v-800c0-8.832-7.2-16-16-16h-1120c-8.8 0-16 7.168-16 16v800zM608 128.384c158.816 0 288 129.216 288 288s-129.184 288-288 288-288-129.216-288-288c0-158.784 129.184-288 288-288zM608 672.416c141.152 0 256-114.848 256-256 0-141.184-114.848-256-256-256s-256 114.848-256 256c0 141.152 114.848 256 256 256zM608 213.824c8.832 0 16 7.168 16 16s-7.168 16-16 16c-94.048 0-170.56 76.512-170.56 170.592 0 8.832-7.168 16-16 16s-16-7.168-16-16c0-111.712 90.88-202.592 202.56-202.592zM519.488 861.728c8.832 0 16 7.168 16 16 0 27.712 22.56 50.272 50.304 50.272h172.448c27.712 0 50.272-22.56 50.272-50.272 0-8.832 7.168-16 16-16s16 7.168 16 16c0 45.376-36.928 82.272-82.304 82.272h-172.448c-45.376 0-82.272-36.896-82.272-82.272 0-8.864 7.168-16 16-16zM208 864c8.832 0 16 7.168 16 16 0 26.464 21.536 48 48 48s48-21.536 48-48c0-8.832 7.168-16 16-16s16 7.168 16 16c0 44.096-35.872 80-80 80s-80-35.904-80-80c0-8.832 7.168-16 16-16z" />
<glyph unicode="&#xe924;" glyph-name="candle" data-tags="candle" horiz-adv-x="672" d="M0 80v-96c0-26.464 21.536-48 48-48h576c26.464 0 48 21.536 48 48v96c0 26.464-21.536 48-48 48h-18.944c1.792 5.024 2.944 10.368 2.944 16v384c0 26.464-21.536 48-48 48h-208v96c0 8.832-7.168 16-16 16s-16-7.168-16-16v-96h-208c-26.464 0-48-21.536-48-48v-384c0-5.632 1.152-10.976 2.944-16h-18.944c-26.464 0-48-21.536-48-48zM640 80v-96c0-8.832-7.2-16-16-16h-576c-8.8 0-16 7.168-16 16v96c0 8.832 7.2 16 16 16h576c8.8 0 16-7.168 16-16zM96 144v384c0 8.832 7.2 16 16 16h304v-64c0-8.832 7.168-16 16-16s16 7.168 16 16v64h112c8.8 0 16-7.168 16-16v-384c0-8.832-7.2-16-16-16h-448c-8.8 0-16 7.168-16 16zM265.088 612.288c5.92 2.208 9.952 7.648 10.368 13.92 5.536 82.464 42.752 124.448 60.672 140.064 54.912-56.672 69.056-140.672 69.184-141.536 1.024-6.272 5.664-11.36 11.808-12.96 6.016-1.632 12.672 0.576 16.576 5.568 39.648 50.336 55.52 103.52 47.264 158.080-16.448 108.192-122.112 181.952-126.624 185.024-5.472 3.776-12.704 3.744-18.176-0.032-86.72-60.064-133.952-126.080-140.352-196.192-7.904-86.528 49.888-145.76 52.352-148.224 3.072-3.072 7.168-4.704 11.328-4.704 1.888 0 3.808 0.32 5.6 0.992zM227.712 761.728c5.44 57.664 44.864 113.376 117.28 165.76 24.512-19.296 92.512-79.136 104.32-156.832 5.408-35.424-1.76-70.528-21.216-104.672-11.072 36.256-34.4 92.352-80.032 133.248-3.040 2.688-6.848 4.064-10.688 4.064-2.848 0-5.728-0.768-8.288-2.304-2.784-1.696-60.768-37.92-80.096-131.872-12.416 21.952-24.864 54.368-21.28 92.608zM176 496c-8.832 0-16-7.168-16-16v-288c0-8.832 7.168-16 16-16s16 7.168 16 16v288c0 8.832-7.168 16-16 16z" />
<glyph unicode="&#xe925;" glyph-name="candles" data-tags="candles" d="M216.416 853.728c-22.112-42.72 10.4-80.736 30.72-94.88 2.752-1.92 5.952-2.848 9.12-2.848 4.672 0 9.344 2.080 12.512 6.016 31.616 39.584 45.28 78.816 40.704 116.64-6.080 49.664-41.984 77.664-43.488 78.848-5.312 4.032-12.608 4.416-18.24 0.832-5.696-3.552-8.512-10.272-7.136-16.8 6.080-29.408-2.784-46.56-22.24-84.096l-1.952-3.712zM244.832 839.008l1.92 3.712c11.168 21.472 19.936 38.432 24.48 55.68 3.072-7.040 5.472-15.104 6.528-24.064 2.88-24.768-5.12-51.168-23.872-78.656-8.864 9.952-18.112 25.888-9.056 43.328zM632.384 649.024c-22.112-42.72 10.4-80.736 30.72-94.848 2.752-1.92 5.952-2.848 9.12-2.848 4.672 0 9.344 2.080 12.512 6.016 31.616 39.552 45.344 78.816 40.704 116.64-6.048 49.664-41.984 77.664-43.488 78.848-5.28 4.032-12.608 4.384-18.208 0.832-5.696-3.552-8.544-10.24-7.168-16.8 6.080-29.44-2.784-46.592-22.24-84.096l-1.952-3.744zM660.8 634.304l1.92 3.712c11.168 21.472 19.936 38.432 24.48 55.712 3.072-7.072 5.504-15.136 6.528-24.096 2.912-24.736-5.12-51.136-23.84-78.624-8.832 9.952-18.112 25.92-9.088 43.296zM37.792-7.2l-22.72-31.424c-3.52-4.864-4-11.296-1.28-16.672 2.752-5.344 8.224-8.704 14.24-8.704h947.968c8.832 0 16 7.968 16 16.8 0 3.232-0.96 6.4-2.816 9.056-45.12 65.6-82.24 103.072-121.536 120.928 60.8 57.28 94.432 133.6 94.432 216.32 0 104.32-49.6 202.88-120.64 239.712-6.624 3.424-14.112 5.184-22.24 5.184h-300.8c-8.064 0-15.776-1.792-22.272-5.216-71.040-36.768-120.64-135.2-120.64-239.296 0-76.832 27.808-147.968 78.848-203.488h-102.336v592c0 26.464-21.536 48-48 48h-128c-26.464 0-48-21.536-48-48v-592c0-4.352 1.76-8.256 4.576-11.136-31.616-13.088-65.568-39.936-94.784-92.064zM498.304 97.568c-58.592 51.936-90.848 123.648-90.848 201.92 0 91.2 43.456 179.872 103.328 210.912 2.016 1.056 4.64 1.6 7.552 1.6h121.664v-192c0-8.832 7.168-16 16-16s16 7.168 16 16v192h64v-96c0-8.832 7.168-16 16-16s16 7.168 16 16v96h51.2c2.912 0 5.536-0.576 7.552-1.6 59.872-31.040 103.328-119.904 103.328-211.296 0-77.76-31.328-146.624-90.624-199.168-2.112-1.888-3.392-4.224-4.256-6.72-9.12 1.696-18.432 2.784-28.192 2.784h-307.488c-0.448 0.512-0.704 1.12-1.216 1.568zM160 96v592c0 8.832 7.2 16 16 16h80v-64c0-8.832 7.168-16 16-16s16 7.168 16 16v64h16c8.8 0 16-7.168 16-16v-592h-132.224c-8.736 0-18.368-1.088-28.416-3.072 0.224 1.024 0.64 1.984 0.64 3.072zM187.776 64h619.232c48.704 0 86.688-25.664 138.56-96h-886.304l5.44 7.584c32.992 58.656 74.4 88.416 123.072 88.416z" />
<glyph unicode="&#xe926;" glyph-name="car" data-tags="car" horiz-adv-x="1408" d="M1307.168 591.072c35.392 16.288 67.040 34.112 94.144 53.312 7.232 5.12 8.896 15.104 3.808 22.304-5.088 7.232-15.104 8.928-22.304 3.808-33.696-23.904-74.88-45.568-121.824-64.672l-59.424 228.736c-22.496 75.040-90.24 125.44-168.576 125.44h-657.92c-78.336 0-146.080-50.4-168.736-126.016l-58.848-226.624c-1.184-0.096-2.4-0.064-3.552-0.192-45.664 18.816-85.792 40-118.72 63.36-7.232 5.12-17.216 3.424-22.336-3.776s-3.424-17.216 3.776-22.304c25.44-18.048 55.008-34.816 87.808-50.304-58.464-26.784-94.464-89.376-94.464-162.144v-128c0-80.896 54.944-149.024 129.408-169.536-0.864-1.984-1.408-4.16-1.408-6.464v-43.872c0-81.664 64.608-148.128 144-148.128s144 66.464 144 148.128v43.872h576v-43.872c0-81.664 64.608-148.128 144-148.128s144 66.464 144 148.128v43.872c0 2.304-0.544 4.48-1.408 6.464 74.464 20.48 129.408 88.64 129.408 169.536v128c0 70.272-33.728 130.848-100.832 159.072zM237.152 825.376c18.4 61.376 73.824 102.624 137.92 102.624h657.92c64.064 0 119.52-41.248 137.792-102.048l56.704-218.4c-3.84 0.16-7.552 0.448-11.488 0.448v-19.072c-139.68-48.448-320.864-76.448-511.968-76.448-198.016 0-385.28 30.080-526.88 81.856l60 231.040zM384 84.128c0-64.032-50.24-116.128-112-116.128s-112 52.096-112 116.128v43.872c0 0.288-0.16 0.544-0.16 0.832 5.344-0.512 10.72-0.832 16.192-0.832h207.968v-43.872zM1248 128v-43.872c0-64.032-50.24-116.128-112-116.128s-112 52.096-112 116.128v43.872h208.032c5.44 0 10.816 0.32 16.128 0.832 0-0.288-0.16-0.544-0.16-0.832zM1376 304c0-79.392-64.576-144-143.968-144h-1056c-79.424 0-144.032 64.608-144.032 144v128c0 71.776 52.32 130.944 109.632 141.76 148.192-58.816 349.632-93.248 562.4-93.248 209.152 0 407.264 33.344 554.72 90.336 71.584-16.192 117.248-72.032 117.248-138.848v-128zM228.928 464c-52.928 0-96-43.072-96-96s43.072-96 96-96 96 43.072 96 96-43.040 96-96 96zM228.928 304c-35.296 0-64 28.704-64 64s28.704 64 64 64 64-28.704 64-64-28.704-64-64-64zM1188.928 464c-52.928 0-96-43.072-96-96s43.072-96 96-96 96 43.072 96 96-43.040 96-96 96zM1188.928 304c-35.296 0-64 28.704-64 64s28.704 64 64 64 64-28.704 64-64-28.704-64-64-64zM596.928 704c4.096 0 8.192 1.568 11.328 4.672l84.992 84.992c6.24 6.24 6.24 16.384 0 22.624s-16.384 6.24-22.624 0l-84.992-84.992c-6.24-6.24-6.24-16.384 0-22.624 3.104-3.104 7.2-4.672 11.296-4.672zM596.928 566.72c4.096 0 8.192 1.568 11.328 4.672l226.4 226.4c6.24 6.24 6.24 16.384 0 22.624s-16.384 6.24-22.624 0l-226.4-226.4c-6.24-6.24-6.24-16.384 0-22.624 3.104-3.104 7.2-4.672 11.296-4.672zM688 400c-8.832 0-16-7.168-16-16v-96c0-8.832 7.168-16 16-16s16 7.168 16 16v96c0 8.832-7.168 16-16 16zM560 400c-8.832 0-16-7.168-16-16v-96c0-8.832 7.168-16 16-16s16 7.168 16 16v96c0 8.832-7.168 16-16 16zM816 400c-8.832 0-16-7.168-16-16v-96c0-8.832 7.168-16 16-16s16 7.168 16 16v96c0 8.832-7.168 16-16 16z" />
<glyph unicode="&#xe927;" glyph-name="carousal" data-tags="carousal" horiz-adv-x="1056" d="M784 960h-512c-26.464 0-48-21.536-48-48v-928c0-26.464 21.536-48 48-48h512c26.464 0 48 21.536 48 48v928c0 26.464-21.536 48-48 48zM800-16c0-8.8-7.168-16-16-16h-512c-8.832 0-16 7.2-16 16v928c0 8.8 7.168 16 16 16h512c8.832 0 16-7.2 16-16v-928zM1014.304 52.608c-2.304-0.96-10.24-3.616-17.344 3.104l-65.984 62.624c-6.432 6.080-16.512 5.856-22.624-0.576-6.080-6.432-5.824-16.576 0.608-22.624l65.952-62.624c9.216-8.736 20.864-13.312 32.8-13.312 6.432 0 12.928 1.312 19.168 4 17.984 7.68 29.12 24.576 29.12 44.096v763.136c0 19.328-10.976 36.16-28.672 43.936s-37.568 4.512-51.776-8.608l-69.728-64c-6.528-5.984-6.944-16.096-0.96-22.592s16.064-6.912 22.592-0.96l69.728 64c7.168 6.56 15.040 3.808 17.28 2.88 2.208-0.992 9.536-4.96 9.536-14.656v-763.168c0-9.76-7.424-13.696-9.696-14.656zM41.248 849.184c2.144 0.96 9.792 3.84 17.024-2.24l83.456-69.92c6.816-5.76 16.864-4.8 22.56 1.984s4.768 16.864-1.984 22.528l-83.488 69.888c-14.464 12.128-34.048 14.752-51.104 6.752-17.088-8-27.712-24.64-27.712-43.52v-772.064c0-19.008 10.72-35.712 28-43.648 6.528-2.976 13.344-4.448 20.128-4.448 11.2 0 22.208 4 31.2 11.712l78.496 67.648c6.688 5.792 7.424 15.872 1.664 22.56-5.792 6.752-15.904 7.424-22.592 1.696l-78.496-67.648c-7.168-6.24-14.88-3.424-17.088-2.432-2.144 0.992-9.312 5.024-9.312 14.56v772.064c0 9.472 7.072 13.504 9.248 14.528z" />
<glyph unicode="&#xe928;" glyph-name="caution" data-tags="caution" horiz-adv-x="1184" d="M592 98.944c-44.256 0-80.256-36.064-80.256-80.416s36-80.448 80.256-80.448 80.256 36.064 80.256 80.448c0 44.32-36 80.416-80.256 80.416zM592-29.92c-26.624 0-48.256 21.728-48.256 48.448s21.632 48.416 48.256 48.416 48.256-21.728 48.256-48.416-21.632-48.448-48.256-48.448zM592 681.6c-52.928 0-96-40.48-95.968-91.2l20.96-353.152c0-37.312 32.16-67.68 71.68-67.68s71.68 30.368 71.616 66.432l27.712 355.36c0 49.76-43.072 90.24-96 90.24zM628.352 237.28c0-19.68-17.792-35.68-39.68-35.68s-39.68 16-39.712 36.64l-20.96 353.12c0 32.096 28.704 58.24 64 58.24s64-26.112 64.032-56.992l-27.68-355.328zM114.912 0h282.976c8.832 0 16 7.168 16 16s-7.168 16-16 16h-282.976c-31.008 0-58.272 16.128-72.928 43.168-14.4 26.56-13.152 57.568 3.36 82.912l477.088 732.416c15.296 23.488 41.312 37.504 69.568 37.504s54.272-14.016 69.568-37.504l477.088-732.416c16.512-25.344 17.76-56.352 3.36-82.912-14.656-27.040-41.92-43.168-72.928-43.168h-282.976c-8.832 0-16-7.168-16-16s7.168-16 16-16h282.976c42.944 0 80.704 22.4 101.056 59.936 20.096 37.056 18.336 80.288-4.672 115.648l-477.088 732.384c-21.216 32.608-57.248 52.032-96.384 52.032s-75.168-19.456-96.384-52.032l-477.088-732.416c-23.040-35.36-24.768-78.592-4.672-115.648 20.32-37.504 58.112-59.904 101.056-59.904z" />
<glyph unicode="&#xe929;" glyph-name="chair1" data-tags="chair1" horiz-adv-x="896" d="M653.024 434.368c-1.312-8.736 4.736-16.864 13.472-18.176 0.8-0.128 1.6-0.192 2.368-0.192 7.808 0 14.624 5.696 15.808 13.632l52 348.576c5.984 45.568-8.064 91.616-38.496 126.304-30.944 35.264-75.744 55.488-122.944 55.488h-250.368c-47.168 0-92-20.224-122.912-55.488-30.464-34.688-44.512-80.736-38.496-126.56l51.968-348.288c1.344-8.736 9.504-14.688 18.176-13.472 8.736 1.312 14.752 9.44 13.472 18.176l-51.904 348c-4.768 36.448 6.464 73.28 30.816 101.024 24.864 28.352 60.928 44.608 98.88 44.608h250.368c37.984 0 74.016-16.256 98.88-44.576 24.384-27.776 35.616-64.608 30.88-100.768l-51.968-348.288zM667.296-63.232c1.632-0.512 3.296-0.768 4.928-0.768 6.752 0 13.024 4.288 15.232 11.072 2.72 8.416-9.888 17.44-18.272 20.16-73.728 23.872-125.184 32.256-221.184 32.832v63.584c0 8.832-7.168 16-16 16s-16-7.168-16-16v-63.84c-96-3.456-198.816-30.72-204.64-32.544-8.416-2.688-9.056-11.68-6.4-20.096 2.688-8.416 13.6-13.056 22.112-10.4 2.208 0.672 225.76 69.472 440.224 0zM63.232 576h50.912c8.832 0 16 7.168 16 16s-7.168 16-16 16h-50.912c-17.952 0-34.496-12.64-46.56-26.208-12.608-14.176-18.496-35.904-16.192-55.104 27.904-231.68 220.288-407.68 447.52-407.68s419.616 174.048 447.52 405.76c2.304 19.2-3.584 43.168-16.192 57.344-12.032 13.6-28.608 25.888-46.56 25.888h-49.536c-8.832 0-16-7.168-16-16s7.168-16 16-16h49.536c8.672 0 16.704-8.8 22.624-15.456 6.528-7.328 9.568-19.936 8.352-30.048-25.952-215.616-204.704-379.488-415.744-379.488s-389.792 161.952-415.744 377.568c-1.216 10.112 1.824 24.96 8.352 32.288 5.888 6.656 13.92 15.136 22.624 15.136z" />
<glyph unicode="&#xe92a;" glyph-name="chair2" data-tags="chair2" horiz-adv-x="800" d="M791.296 951.968c-7.744 3.968-17.472 0.896-21.536-6.976-123.968-242.016-138.336-439.744-139.744-496.992h-469.696c-22.112 0-41.28-15.008-46.592-36.544l-113.248-459.84c-2.112-8.576 3.136-17.248 11.712-19.328 1.28-0.32 2.56-0.48 3.808-0.48 7.232 0 13.76 4.864 15.52 12.192l113.248 459.808c1.792 7.2 8.16 12.192 15.552 12.192h474.88l109.568-467.648c1.728-7.392 8.288-12.352 15.584-12.352 1.184 0 2.432 0.128 3.648 0.416 8.608 2.016 13.952 10.624 11.936 19.264l-113.952 486.432c0.832 44.864 11.776 245.312 136.256 488.352 4.032 7.808 0.928 17.472-6.944 21.504z" />
<glyph unicode="&#xe92b;" glyph-name="chat-bubble" data-tags="chat-bubble" horiz-adv-x="1184" d="M203.872 318.24l-61.568-131.296c-2.848-6.048-1.6-13.312 3.136-18.048 3.072-3.104 7.168-4.704 11.328-4.704 2.272 0 4.576 0.48 6.72 1.472l216.768 100.448c24.864-3.040 47.648-4.512 69.44-4.512 248.928 0 451.424 156.672 451.424 349.216 0.032 192.512-202.464 349.184-451.392 349.184s-451.424-156.672-451.424-349.184c0-119.456 76.512-227.84 205.568-292.576zM449.728 928c231.264 0 419.424-142.272 419.424-317.184s-188.16-317.216-419.424-317.216c-21.792 0-44.672 1.568-69.984 4.8-2.944 0.352-6.016-0.128-8.736-1.344l-181.056-83.872 49.632 105.824c1.824 3.84 1.984 8.256 0.544 12.256s-4.448 7.296-8.32 9.056c-126.176 58.336-201.504 159.456-201.504 270.496 0 174.912 188.16 317.184 419.424 317.184zM230.304 533.504c5.184-1.248 10.464-1.888 15.712-1.888 19.744 0 38.080 8.896 50.304 24.416s16.544 35.68 11.808 55.296c-5.472 22.72-23.68 40.928-46.432 46.432-24.8 6.016-50.56-2.912-65.984-22.56-12.224-15.52-16.544-35.68-11.808-55.264 5.44-22.72 23.648-40.928 46.4-46.432zM220.832 615.36c6.112 7.776 15.296 12.256 25.184 12.256 2.688 0 5.44-0.352 8.16-0.992 11.008-2.656 20.16-11.808 22.816-22.816 2.432-10.144 0.352-20.096-5.856-27.968-7.808-9.92-20.64-14.24-33.344-11.232-11.008 2.656-20.16 11.808-22.816 22.816-2.432 10.144-0.352 20.064 5.856 27.936zM419.136 533.504c5.184-1.248 10.464-1.888 15.712-1.888 19.744 0 38.048 8.896 50.272 24.416s16.544 35.68 11.808 55.296c-5.472 22.72-23.68 40.928-46.432 46.432-24.768 6.016-50.528-2.912-65.984-22.56-12.224-15.52-16.544-35.648-11.84-55.264 5.472-22.688 23.712-40.928 46.464-46.432zM409.664 615.36c6.112 7.776 15.296 12.256 25.184 12.256 2.688 0 5.44-0.352 8.16-0.992 11.008-2.656 20.192-11.808 22.816-22.816 2.464-10.144 0.384-20.096-5.856-27.968-7.776-9.952-20.608-14.272-33.344-11.232-11.008 2.656-20.192 11.808-22.848 22.816-2.432 10.144-0.352 20.064 5.888 27.936zM607.936 533.504c5.184-1.248 10.464-1.888 15.712-1.888 19.744 0 38.080 8.896 50.304 24.416s16.544 35.68 11.808 55.296c-5.472 22.72-23.68 40.928-46.432 46.432-24.768 6.016-50.56-2.912-65.984-22.56-12.224-15.52-16.544-35.648-11.808-55.264 5.472-22.72 23.68-40.928 46.4-46.432zM598.464 615.36c6.112 7.776 15.296 12.256 25.184 12.256 2.688 0 5.44-0.352 8.16-0.992 11.008-2.656 20.16-11.808 22.816-22.816 2.432-10.144 0.352-20.096-5.856-27.968-7.808-9.92-20.672-14.24-33.344-11.232-11.008 2.656-20.192 11.808-22.848 22.816-2.4 10.144-0.32 20.064 5.888 27.936zM957.056 569.024c-8.576 2.4-17.376-2.336-19.904-10.784-2.528-8.48 2.272-17.376 10.752-19.904 123.104-36.672 205.792-128.288 205.792-227.872 0-85.856-61.344-166.592-160.096-210.72-6.848-3.072-10.656-10.464-9.152-17.824l18.88-91.552-101.44 76.64c-3.424 2.56-7.68 3.52-11.936 3.072-20.864-3.008-41.472-4.544-61.312-4.544-117.152 0-230.496 59.84-275.616 145.536-4.096 7.84-13.824 10.816-21.6 6.72-7.808-4.128-10.816-13.792-6.688-21.6 50.4-95.776 175.392-162.656 303.936-162.656 19.232 0 39.136 1.312 59.232 3.936l130.080-98.24c2.816-2.144 6.208-3.232 9.632-3.232 2.976 0 5.952 0.8 8.544 2.464 5.632 3.552 8.48 10.24 7.136 16.736l-24.928 120.768c103.552 50.464 167.328 139.328 167.328 234.464 0 115.68-89.728 217.152-228.64 258.592z" />
<glyph unicode="&#xe92c;" glyph-name="chat-bubble-single" data-tags="chat-bubble-single" horiz-adv-x="1120" d="M833.824 657.312c-44.096 0-80-35.872-80-80s35.904-80 80-80 80 35.872 80 80-35.872 80-80 80zM833.824 529.312c-26.464 0-48 21.536-48 48s21.536 48 48 48 48-21.536 48-48-21.536-48-48-48zM592 657.312c-44.096 0-80-35.872-80-80s35.904-80 80-80 80 35.872 80 80-35.904 80-80 80zM592 529.312c-26.464 0-48 21.536-48 48s21.536 48 48 48 48-21.536 48-48-21.536-48-48-48zM350.176 657.312c-44.096 0-80-35.872-80-80s35.904-80 80-80 80 35.872 80 80-35.904 80-80 80zM350.176 529.312c-26.464 0-48 21.536-48 48s21.536 48 48 48 48-21.536 48-48-21.536-48-48-48zM1072 960h-1024c-26.464 0-48-21.536-48-48v-704c0-26.464 21.536-48 48-48h192c8.832 0 16-7.2 16-16v-192c0-6.016 3.36-11.488 8.704-14.24 2.304-1.152 4.8-1.76 7.296-1.76 3.296 0 6.56 0.992 9.344 3.008l303.392 217.984c2.752 1.984 5.984 3.008 9.344 3.008h477.92c26.464 0 48 21.536 48 48v704c0 26.464-21.536 48-48 48zM1088 208c0-8.8-7.168-16-16-16h-477.92c-10.080 0-19.776-3.136-28-8.992l-278.080-199.808v160.8c0 26.464-21.536 48-48 48h-192c-8.832 0-16 7.2-16 16v704c0 8.8 7.168 16 16 16h1024c8.832 0 16-7.2 16-16v-704z" />
<glyph unicode="&#xe92d;" glyph-name="cheese" data-tags="cheese" horiz-adv-x="1248" d="M1159.168 862.752l-96 63.424c-56.128 34.656-126.112 43.296-192.288 23.52l-753.056-245.152c-0.352-0.128-0.608-0.416-0.96-0.544h-68.864c-26.464 0-48-21.536-48-48v-309.056c0-8.832 7.168-16 16-16 78.368 0 125.184-46.816 125.184-125.184s-46.816-125.152-125.184-125.152c-8.832 0-16-7.168-16-16v-64.224c0-64.384 41.472-64.384 63.776-64.384h1136.224c26.464 0 48 21.536 48 48v672c0 2.784-0.352 5.504-0.832 8.16 0.384 1.344 0.832 2.624 0.832 4.096 0 90.112-29.888 155.552-88.832 194.496zM880.384 919.168c57.184 16.992 117.6 9.664 165.536-19.936l95.584-63.168c42.080-27.808 66.336-73.056 72.672-134.432-4.512 1.408-9.216 2.368-14.176 2.368h-980.416l660.8 215.168zM1216-16c0-8.8-7.168-16-16-16h-1136.224c-22.464 0-31.776 0-31.776 32.384v48.8c86.304 6.56 141.184 66.528 141.184 156.576s-54.88 150.016-141.184 156.576v293.664c0 8.8 7.168 16 16 16h1152c8.832 0 16-7.2 16-16v-672zM511.712 356.832c-87.872 0-159.36-71.584-159.36-159.616s71.488-159.616 159.36-159.616c87.872 0 159.328 71.584 159.328 159.616s-71.488 159.616-159.328 159.616zM511.712 69.6c-70.208 0-127.36 57.248-127.36 127.616s57.152 127.616 127.36 127.616 127.328-57.248 127.328-127.616-57.12-127.616-127.328-127.616zM388.288 517.28c0 42.976-34.912 77.92-77.792 77.92s-77.792-34.944-77.792-77.92 34.912-77.952 77.792-77.952 77.792 34.976 77.792 77.952zM310.496 471.328c-25.248 0-45.792 20.608-45.792 45.952 0 25.312 20.544 45.92 45.792 45.92s45.792-20.608 45.792-45.92c0-25.344-20.544-45.952-45.792-45.952zM750.816 500.256c-32.8 0-59.488-26.72-59.488-59.552 0-32.864 26.688-59.584 59.488-59.584s59.488 26.72 59.488 59.584c0 32.832-26.688 59.552-59.488 59.552zM750.816 413.088c-15.168 0-27.488 12.384-27.488 27.584s12.32 27.552 27.488 27.552 27.488-12.384 27.488-27.552c0-15.2-12.32-27.584-27.488-27.584zM924.256 251.648c-42.912 0-77.824-34.944-77.824-77.92s34.912-77.92 77.824-77.92c42.88 0 77.792 34.944 77.792 77.92s-34.88 77.92-77.792 77.92zM924.256 127.84c-25.28 0-45.824 20.608-45.824 45.92s20.544 45.92 45.824 45.92c25.248 0 45.792-20.608 45.792-45.92s-20.544-45.92-45.792-45.92zM1044.672 574.528c-57.632 0-104.544-46.976-104.544-104.672s46.88-104.672 104.544-104.672 104.544 46.976 104.544 104.672-46.912 104.672-104.544 104.672zM1044.672 397.152c-40 0-72.544 32.608-72.544 72.672s32.544 72.672 72.544 72.672 72.544-32.608 72.544-72.672-32.544-72.672-72.544-72.672z" />
<glyph unicode="&#xe92e;" glyph-name="clip" data-tags="clip" horiz-adv-x="1056" d="M647.008 700c6.336 6.176 6.464 16.32 0.288 22.624-6.176 6.336-16.288 6.432-22.624 0.288l-390.272-380.928c-25.568-24.96-39.648-58.304-39.648-93.888s14.080-68.928 39.648-93.888c52.704-51.456 138.528-51.456 191.232 0l444.544 433.952c42.016 41.024 65.152 95.776 65.152 154.208s-23.136 113.216-65.152 154.208c-86.784 84.704-228.064 84.704-314.816 0l-466.912-455.808c-57.056-55.648-88.448-129.984-88.448-209.28 0-79.328 31.392-153.664 88.448-209.344 58.944-57.536 136.416-86.336 213.856-86.336s154.912 28.768 213.856 86.336l535.040 522.272c6.336 6.176 6.464 16.32 0.288 22.624-6.144 6.336-16.288 6.432-22.624 0.288l-535.040-522.272c-105.6-103.104-277.44-103.104-383.008 0-50.848 49.6-78.816 115.808-78.816 186.4s28 136.8 78.784 186.4l466.912 455.808c74.464 72.704 195.648 72.736 270.144 0 35.776-34.944 55.488-81.568 55.488-131.328 0-49.728-19.712-96.352-55.488-131.296l-444.544-433.952c-40.416-39.424-106.144-39.424-146.56 0-19.328 18.88-30.016 44.096-30.016 70.976s10.656 52.096 30.016 70.976l390.272 380.96z" />
<glyph unicode="&#xe92f;" glyph-name="clip-board" data-tags="clip-board" horiz-adv-x="736" d="M608 512h-256c-8.832 0-16-7.168-16-16s7.168-16 16-16h256c8.832 0 16 7.168 16 16s-7.168 16-16 16zM608 352h-256c-8.832 0-16-7.168-16-16s7.168-16 16-16h256c8.832 0 16 7.168 16 16s-7.168 16-16 16zM608 192h-256c-8.832 0-16-7.168-16-16s7.168-16 16-16h256c8.832 0 16 7.168 16 16s-7.168 16-16 16zM688 832h-80v16c0 26.464-21.536 48-48 48h-80v48c0 8.832-7.168 16-16 16h-192c-8.832 0-16-7.168-16-16v-48h-80c-26.464 0-48-21.536-48-48v-16h-80c-26.464 0-48-21.536-48-48v-800c0-26.464 21.536-48 48-48h640c26.464 0 48 21.536 48 48v800c0 26.464-21.536 48-48 48zM160 848c0 8.8 7.2 16 16 16h96c8.832 0 16 7.168 16 16v48h160v-48c0-8.832 7.168-16 16-16h96c8.8 0 16-7.2 16-16v-64c0-8.8-7.2-16-16-16h-384c-8.8 0-16 7.2-16 16v64zM704-16c0-8.8-7.2-16-16-16h-640c-8.8 0-16 7.2-16 16v800c0 8.8 7.2 16 16 16h80v-16c0-26.464 21.536-48 48-48h384c26.464 0 48 21.536 48 48v16h80c8.8 0 16-7.2 16-16v-800zM261.312 524.64l-45.952-45.952-19.616 19.648c-6.24 6.24-16.384 6.24-22.624 0s-6.24-16.384 0-22.624l30.944-30.976c3.008-3.008 7.072-4.672 11.328-4.672s8.32 1.696 11.328 4.672l57.248 57.248c6.24 6.24 6.24 16.384 0 22.624s-16.416 6.272-22.656 0.032zM261.312 387.68l-45.952-45.92-19.616 19.648c-6.24 6.24-16.384 6.24-22.624 0s-6.24-16.384 0-22.624l30.944-30.976c3.008-3.008 7.072-4.672 11.328-4.672s8.32 1.696 11.328 4.672l57.248 57.248c6.24 6.24 6.24 16.384 0 22.624s-16.416 6.272-22.656 0zM261.312 218.752l-45.952-45.952-19.616 19.648c-6.24 6.24-16.384 6.24-22.624 0s-6.24-16.384 0-22.624l30.944-30.976c3.008-3.008 7.072-4.672 11.328-4.672s8.32 1.696 11.328 4.672l57.248 57.248c6.24 6.24 6.24 16.384 0 22.624s-16.416 6.272-22.656 0.032z" />
<glyph unicode="&#xe930;" glyph-name="cloud" data-tags="cloud" horiz-adv-x="1568" d="M1186.816 676.448l-19.264-4.448c-1.056 0-2.112 0-3.136 0-0.928 1.696-2.048 3.168-3.488 4.384-51.136 157.824-203.072 279.040-375.744 279.040-217.312 0-394.080-172.512-394.080-390.208 0-1.856 0-3.712 0.032-5.568-45.344 9.152-92.512 8.416-138.72-2.048-130.144-29.504-224.608-124-246.528-246.592-17.056-95.392 6.592-187.392 66.592-259.072 61.696-73.696 154.272-115.936 254.016-115.936h845.632c212.128 0 381.728 147.712 394.496 345.12 6.784 105.024-28.16 203.040-98.432 278.016-71.264 76-173.792 117.312-281.376 117.312zM1534.688 284.352c-11.648-180.352-167.52-316.352-362.56-316.352h-845.632c-90.24 0-173.888 38.048-229.44 104.48-53.792 64.288-74.976 146.976-59.616 232.896 19.616 109.728 104.704 194.4 222.080 221.024 22.4 5.056 45.088 7.616 67.456 7.616 25.984 0 51.84-3.424 76.896-10.24 4.992-1.408 10.304-0.256 14.304 3.072 4 3.296 6.176 8.288 5.856 13.44-0.544 8.16-0.928 16.672-0.928 24.928 0 200.032 162.4 362.784 362.080 362.784 164.16 0 308.032-109.984 349.888-267.424 15.36-62.592 13.44-132.96-5.248-193.184-2.624-8.448 2.080-17.408 10.528-20.032 1.6-0.512 3.2-0.704 4.736-0.704 6.816 0 13.152 4.416 15.296 11.264 18.528 59.68 21.12 128.16 9.024 191.296l17.408-0.128c100.224 0 191.84-38.88 258.016-109.472 64.16-68.512 96.064-159.136 89.856-255.264z" />
<glyph unicode="&#xe931;" glyph-name="cloud-down" data-tags="cloud-down" horiz-adv-x="1504" d="M1137.504 687.808c-3.968 0-8.256 0.256-12.192 0.48-3.008 0.192-6.592 0.352-9.568 0.448-48.288 160.32-197.408 271.264-365.152 271.264-209.568 0-382.592-170.208-382.592-379.456 0-1.344 0-2.688 0-4.032 0 4.16-38.56 6.24-59.104 6.24-170.432 0-311.872-148.096-311.872-323.36s144-323.392 314.432-323.392h312.544c8.832 0 16 7.168 16 16s-7.168 16-16 16h-312.544c-153.088 0-282.432 133.44-282.432 291.36s129.344 291.36 282.432 291.36c24.736 0 49.76-3.392 74.304-10.112 0.384-0.096 0.768 0.032 1.152-0.032 46.72-12.928 89.696-37.92 124.256-72.448 3.136-3.136 7.232-4.672 11.328-4.672s8.192 1.568 11.328 4.672c6.24 6.24 6.24 16.384 0 22.624-35.904 35.904-80.192 62.080-128.256 77.184-0.192 4.16-0.48 8.288-0.48 12.576 0 191.616 156.128 347.488 348.032 347.488 151.584 0 285.152-99.072 331.136-242.784-165.824-23.392-332.256-155.2-332.256-406.016v-250.528l-79.008 76.992c-6.304 6.208-16.48 5.6-22.624-0.672-6.176-6.304-6.048-17.344 0.256-23.488l106.176-105.472c3.008-2.944 7.008-8.032 11.2-8.032 0.128 0 0.288 0 0.416 0 4.32 0 8.416 5.408 11.328 8.576l96.064 107.2c6.016 6.496 5.6 16.608-0.864 22.592-6.496 6.016-16.64 5.568-22.624-0.928l-68.32-73.888v247.648c0 246.272 172.96 368.032 334.144 377.216 1.984-0.096 3.904 0.032 5.888-0.064 4.576-0.288 9.152-0.544 13.792-0.544 185.92 0 337.152-153.28 337.152-341.664 0-187.616-154.4-346.144-337.152-346.144h-225.824c-8.832 0-16-7.168-16-16s7.168-16 16-16h225.824c200.096 0 368.992 173.184 368.992 378.144 0 206.048-165.76 373.664-369.312 373.664z" />
<glyph unicode="&#xe932;" glyph-name="cloud-up" data-tags="cloud-up" horiz-adv-x="1568" d="M1186.816 681.024l-9.056 0.096c-4.992 0.032-10.208 0.128-15.264 0.032-49.696 164.864-203.040 278.848-377.344 278.848-217.28 0-394.048-177.088-394.048-394.784 0-1.856 0.032-3.68 0.064-5.568-45.504 9.184-92.064 8.544-138.72-2.048-130.144-29.504-224.608-124-246.528-246.592-17.056-95.392 6.592-187.392 66.592-259.072 61.664-73.696 154.24-115.936 253.952-115.936h180.768c151.776 0 308.736 101.248 308.736 270.656v105.536l72.8-75.904c6.144-6.4 16.256-6.592 22.624-0.512 6.368 6.112 6.592 16.256 0.512 22.624l-100.384 104.672c-0.032 0.032-0.096 0.064-0.128 0.096-2.88 2.976-6.912 4.832-11.392 4.832-2.144 0-4.256-0.448-6.176-1.248-1.952-0.832-3.712-2.016-5.184-3.488 0 0-0.032 0-0.032-0.032l-103.52-104.672c-6.208-6.272-6.144-16.416 0.128-22.624 3.136-3.104 7.2-4.64 11.264-4.64 4.128 0 8.256 1.6 11.36 4.736l76.16 76.992v-106.432c0-149.312-140.704-238.592-276.736-238.592h-180.768c-90.208 0-173.856 38.048-229.44 104.48-53.824 64.288-74.976 147.008-59.616 232.896 19.616 109.728 104.704 194.4 222.080 221.024 48.736 10.976 97.28 10.112 144.384-2.624 4.96-1.408 10.336-0.256 14.336 3.072s6.144 8.32 5.824 13.504c-0.576 8.128-0.928 16.64-0.928 24.864-0.032 200.032 162.368 362.784 362.016 362.784 164.16 0 308.032-109.984 349.92-267.424 15.328-62.592 13.44-132.992-5.248-193.184-2.624-8.448 2.080-17.408 10.528-20.032 1.6-0.512 3.2-0.704 4.736-0.704 6.848 0 13.152 4.416 15.296 11.264 18.496 59.584 21.088 128 9.056 191.104 2.688 0 5.248 0.16 7.904 0.16l9.472-0.096c100.224 0 191.872-38.88 258.048-109.504 64.16-68.448 96.032-159.072 89.824-255.2-11.68-180.384-167.52-316.384-362.56-316.384h-260.128c-8.832 0-16-7.168-16-16s7.168-16 16-16h260.128c212.128 0 381.728 148.864 394.496 346.272 6.816 105.024-28.16 204.192-98.4 279.168-71.264 76-173.824 119.584-281.408 119.584z" />
<glyph unicode="&#xe933;" glyph-name="code" data-tags="code" d="M48-64h928c26.464 0 48 21.536 48 48v928c0 26.464-21.536 48-48 48h-928c-26.464 0-48-21.536-48-48v-928c0-26.464 21.536-48 48-48zM32 912c0 8.832 7.168 16 16 16h928c8.832 0 16-7.168 16-16v-928c0-8.832-7.168-16-16-16h-928c-8.832 0-16 7.168-16 16v928zM647.168 308.256c3.136-3.136 7.232-4.672 11.328-4.672s8.192 1.568 11.328 4.672l128.448 128.448c6.24 6.24 6.24 16.384 0 22.624l-128.448 128.448c-6.24 6.24-16.384 6.24-22.624 0s-6.24-16.384 0-22.624l117.12-117.12-117.12-117.12c-6.304-6.272-6.304-16.416-0.032-22.656zM347.68 308.096c2.848-2.112 6.208-3.136 9.504-3.136 4.896 0 9.728 2.24 12.864 6.496 5.28 7.104 3.776 17.12-3.328 22.368l-133.152 98.528 98.528 133.152c5.28 7.104 3.776 17.12-3.328 22.368-7.104 5.312-17.12 3.744-22.368-3.328l-108.032-146.016c-5.28-7.104-3.776-17.12 3.328-22.368l145.984-108.064zM448.448 256.704c1.568-0.48 3.2-0.704 4.736-0.704 6.816 0 13.152 4.384 15.296 11.264l109.28 352c2.624 8.448-2.080 17.408-10.528 20.032-8.48 2.624-17.408-2.080-20.032-10.528l-109.28-352c-2.624-8.48 2.080-17.44 10.528-20.064z" />
<glyph unicode="&#xe934;" glyph-name="code-browser" data-tags="code-browser" horiz-adv-x="1152" d="M454.112 445.216c-6.24 6.24-16.384 6.24-22.624 0l-112.544-112.512c-3.008-3.008-4.672-7.072-4.672-11.328s1.696-8.32 4.672-11.328l112.544-112.544c3.136-3.136 7.232-4.672 11.328-4.672s8.192 1.568 11.328 4.672c6.24 6.24 6.24 16.384 0 22.624l-101.216 101.216 101.216 101.216c6.208 6.272 6.208 16.384-0.032 22.656zM635.424 197.536c3.136-3.136 7.232-4.672 11.328-4.672s8.192 1.568 11.328 4.672l112.512 112.544c6.24 6.24 6.24 16.384 0 22.624l-112.512 112.512c-6.24 6.24-16.384 6.24-22.624 0s-6.24-16.384 0-22.624l101.216-101.216-101.216-101.216c-6.272-6.24-6.272-16.384-0.032-22.624zM556.256 437.6l-53.472-225.056c-2.048-8.608 3.264-17.248 11.872-19.264 1.248-0.288 2.496-0.448 3.712-0.448 7.232 0 13.792 4.96 15.552 12.288l53.472 225.056c2.048 8.608-3.264 17.248-11.872 19.264-8.544 2.016-17.184-3.264-19.264-11.84zM0-16c0-26.464 21.536-48 48-48h1056c26.464 0 48 21.536 48 48v576c0 8.832-7.168 16-16 16s-16-7.168-16-16v-576c0-8.832-7.168-16-16-16h-1056c-8.832 0-16 7.168-16 16v576c0 8.832-7.168 16-16 16s-16-7.168-16-16v-576zM1104 960h-1056c-26.464 0-48-21.536-48-48v-256c0-26.464 21.536-48 48-48h1056c26.464 0 48 21.536 48 48v256c0 26.464-21.536 48-48 48zM1120 656c0-8.832-7.168-16-16-16h-1056c-8.832 0-16 7.168-16 16v256c0 8.832 7.168 16 16 16h1056c8.832 0 16-7.168 16-16v-256zM160 784c0-17.673-14.327-32-32-32s-32 14.327-32 32c0 17.673 14.327 32 32 32s32-14.327 32-32zM256 784c0-17.673-14.327-32-32-32s-32 14.327-32 32c0 17.673 14.327 32 32 32s32-14.327 32-32zM352 784c0-17.673-14.327-32-32-32s-32 14.327-32 32c0 17.673 14.327 32 32 32s32-14.327 32-32z" />
<glyph unicode="&#xe935;" glyph-name="code-clean" data-tags="code-clean" horiz-adv-x="1056" d="M755.904 127.264c-29.28-29.28-32.256-75.584-6.72-105.408 14.464-16.896 35.456-26.592 57.632-26.592 20.288 0 39.328 7.872 53.6 22.176l168.48 168.48c12.064 12.032 18.72 28.064 18.72 45.12s-6.656 33.088-18.72 45.12l-168.48 168.48c-30.432 30.464-84.96 27.744-112.384-5.76-24.256-29.696-20.864-75.296 7.68-103.84l98.368-98.432c2.016-1.984 2.304-4.352 2.304-5.568s-0.288-3.584-2.304-5.6l-98.176-98.176zM876.704 259.264l-98.368 98.4c-17.056 17.056-19.488 43.84-5.504 60.96 8.416 10.304 20.768 16.192 33.984 16.192 11.68 0 22.688-4.544 30.976-12.832l168.48-168.48c6.016-6.016 9.344-14.016 9.344-22.496s-3.328-16.48-9.344-22.496l-168.48-168.48c-17.312-17.312-48.256-16.128-64.288 2.592-14.464 16.928-12.224 44.736 5.024 61.984l98.176 98.176c7.52 7.552 11.68 17.568 11.68 28.224 0.032 10.72-4.128 20.736-11.68 28.256zM32.192 195.456c2.528-16.864 11.456-31.712 25.152-41.856l191.52-141.728c13.12-9.728 28.704-14.88 45.024-14.88 27.776 0 53.344 15.232 66.752 39.776 17.92 32.896 7.584 75.328-24.032 98.688l-112.256 83.040c-3.488 2.624-4.256 7.584-1.664 11.072l84.832 114.656c12.672 17.184 17.568 39.040 13.344 60-4.192 20.96-17.216 39.264-35.68 50.272-32.32 19.264-78.208 8.576-101.536-22.88l-139.616-188.736c-10.144-13.696-14.336-30.528-11.84-47.424zM69.76 223.84l139.68 188.8c9.12 12.32 23.968 20 38.752 20 7.456 0 14.4-1.888 20.672-5.6 10.88-6.496 18.24-16.8 20.704-29.088 2.4-12.096-0.416-24.736-7.744-34.656l-84.864-114.656c-13.056-17.664-9.312-42.688 8.352-55.808l112.288-83.072c18.848-13.952 25.28-38.72 14.976-57.632-12.48-22.816-43.936-29.856-64.64-14.496l-191.52 141.728c-6.848 5.056-11.328 12.48-12.576 20.864s0.832 16.768 5.92 23.616zM546.080 472.8l-136.128-438.56c-6.016-19.328-4.096-39.84 5.312-57.728 9.44-17.92 25.28-31.072 44.576-37.056 7.296-2.304 14.848-3.456 22.496-3.456 33.344 0 62.432 21.408 72.352 53.312l136.128 438.56c12.384 39.904-9.984 82.432-49.92 94.816-39.36 12.192-82.624-10.784-94.816-49.888zM660.256 437.344l-136.128-438.528c-7.040-22.656-32.16-35.808-54.784-28.832-11.2 3.456-20.32 11.072-25.792 21.408-5.44 10.368-6.528 22.208-3.072 33.344l136.16 438.56c5.728 18.4 22.496 30.784 41.792 30.784 4.416 0 8.768-0.672 12.992-1.984 23.040-7.136 35.968-31.712 28.832-54.752zM272 560c8.832 0 16 7.168 16 16v64h64c8.832 0 16 7.168 16 16s-7.168 16-16 16h-64v64c0 8.832-7.168 16-16 16s-16-7.168-16-16v-64h-64c-8.832 0-16-7.168-16-16s7.168-16 16-16h64v-64c0-8.832 7.168-16 16-16zM192 928v-32h-32c-8.832 0-16-7.168-16-16s7.168-16 16-16h32v-32c0-8.832 7.168-16 16-16s16 7.168 16 16v32h32c8.832 0 16 7.168 16 16s-7.168 16-16 16h-32v32c0 8.832-7.168 16-16 16s-16-7.168-16-16zM80 816c-8.832 0-16-7.168-16-16v-32h-32c-8.832 0-16-7.168-16-16s7.168-16 16-16h32v-32c0-8.832 7.168-16 16-16s16 7.168 16 16v32h32c8.832 0 16 7.168 16 16s-7.168 16-16 16h-32v32c0 8.832-7.168 16-16 16z" />
<glyph unicode="&#xe936;" glyph-name="color-plate" data-tags="color-plate" horiz-adv-x="1088" d="M346.624 776.48c-44.096 0-80-35.904-80-80s35.904-80 80-80 80 35.904 80 80-35.904 80-80 80zM346.624 648.48c-26.464 0-48 21.536-48 48s21.536 48 48 48 48-21.536 48-48-21.536-48-48-48zM687.168 664.128c0 44.096-35.904 80-80 80s-80-35.904-80-80 35.904-80 80-80 80 35.872 80 80zM559.168 664.128c0 26.464 21.536 48 48 48s48-21.536 48-48-21.536-48-48-48-48 21.536-48 48zM731.744 525.024c-44.096 0-80-35.904-80-80s35.904-80 80-80 80 35.904 80 80-35.904 80-80 80zM731.744 397.024c-26.464 0-48 21.536-48 48s21.536 48 48 48 48-21.536 48-48-21.536-48-48-48zM652.384 286.496c-52.928 0-96-43.072-96-96s43.072-96 96-96 96 43.072 96 96-43.040 96-96 96zM652.384 126.496c-35.296 0-64 28.704-64 64s28.704 64 64 64 64-28.704 64-64-28.704-64-64-64zM544 960c-299.968 0-544-247.328-544-551.296 0-149.6 58.144-291.744 159.52-390.016 30.368-29.44 60.896-44.992 88.352-44.992 24.896 0 45.696 12.864 57.056 35.296 17.792 35.136 8.768 85.792-22.976 129.056-15.456 21.024-19.648 46.048-10.688 63.712 6.336 12.48 18.592 19.36 34.496 19.36 18.592 0 70.016-10.368 145.568-106.304 116.352-147.776 224.96-178.816 295.616-178.816 59.328 0 116.448 22.304 160.864 62.784 114.496 104.48 180.192 253.888 180.192 409.92 0 303.968-244.032 551.296-544 551.296zM886.24 22.464c-38.496-35.136-87.968-54.464-139.296-54.464-63.552 0-162.048 28.896-270.496 166.624-60.192 76.448-120.8 118.528-170.72 118.528-28.192 0-51.168-13.44-63.040-36.928-14.56-28.736-9.408-65.952 13.44-97.088 28.064-38.24 30.4-75.616 20.224-95.68-4.096-8.096-12.352-17.76-28.48-17.76-18.688 0-42.144 12.768-66.048 35.968-95.232 92.288-149.824 226.048-149.824 367.040 0 286.336 229.696 519.296 512 519.296s512-232.96 512-519.296c0-147.072-61.888-287.84-169.76-386.24z" />
<glyph unicode="&#xe937;" glyph-name="compass" data-tags="compass" horiz-adv-x="864" d="M497.92 794.496c18.432 17.504 30.080 42.080 30.080 69.44 0 52.928-43.072 96-96 96s-96-43.072-96-96c0-27.36 11.648-51.936 30.080-69.44-206.944-31.904-366.080-210.688-366.080-426.432 0-238.208 193.792-432 432-432s432 193.792 432 432c0 215.744-159.136 394.528-366.080 426.432zM368 863.936c0 35.296 28.704 64 64 64s64-28.704 64-64c0-35.008-28.288-63.456-63.168-63.904-0.288 0-0.544 0.032-0.832 0.032s-0.544-0.032-0.832-0.032c-34.88 0.448-63.168 28.896-63.168 63.904zM448-31.136v63.136c0 8.832-7.168 16-16 16s-16-7.168-16-16v-63.136c-207.744 8.288-374.88 175.392-383.2 383.136h63.2c8.832 0 16 7.168 16 16s-7.168 16-16 16h-63.2c8.256 207.808 175.424 374.976 383.2 383.264v-63.264c0-8.832 7.168-16 16-16s16 7.168 16 16v63.264c207.776-8.288 374.944-175.456 383.2-383.264h-63.2c-8.832 0-16-7.168-16-16s7.168-16 16-16h63.2c-8.32-207.744-175.456-374.848-383.2-383.136zM649.184 606.56l-282.912-133.12c-3.36-1.6-6.080-4.288-7.648-7.68l-133.088-282.88c-2.88-6.112-1.632-13.344 3.168-18.112 3.072-3.072 7.168-4.672 11.328-4.672 2.304 0 4.64 0.512 6.816 1.504l282.88 133.12c3.36 1.6 6.080 4.288 7.648 7.68l133.12 282.88c2.88 6.112 1.632 13.344-3.168 18.112-4.768 4.768-12 5.984-18.144 3.168zM510.848 321.216l-237.44-111.744 111.712 237.472 237.472 111.744-111.744-237.472zM402.752 338.816c12.096-12.096 28.16-18.752 45.248-18.752s33.152 6.656 45.248 18.752 18.752 28.16 18.752 45.248c0 17.12-6.656 33.184-18.752 45.248-24.192 24.192-66.304 24.192-90.496 0-12.096-12.064-18.752-28.128-18.752-45.248 0-17.088 6.656-33.152 18.752-45.248zM425.376 406.688c6.048 6.048 14.080 9.376 22.624 9.376s16.576-3.328 22.624-9.376c6.048-6.048 9.376-14.080 9.376-22.624s-3.328-16.576-9.376-22.624c-12.128-12.096-33.12-12.096-45.248 0-6.048 6.048-9.376 14.080-9.376 22.624s3.328 16.576 9.376 22.624z" />
<glyph unicode="&#xe938;" glyph-name="compass-math" data-tags="compass-math" horiz-adv-x="800" d="M405.056 659.84c26.464 0 48 21.536 48 48s-21.536 48-48 48-48-21.536-48-48 21.536-48 48-48zM405.056 723.84c8.8 0 16-7.2 16-16s-7.2-16-16-16-16 7.2-16 16 7.2 16 16 16zM9.888-60.8c2.080-0.896 4.288-1.344 6.432-1.344 6.112 0 12 3.552 14.656 9.568l139.328 316.128c66.432-41.344 143.104-63.872 223.424-63.872 85.888 0 167.744 25.376 237.184 72.416l138.048-324.48c2.592-6.080 8.512-9.76 14.72-9.76 2.080 0 4.224 0.416 6.24 1.28 8.16 3.456 11.936 12.832 8.48 20.96l-141.088 331.584c12.512 9.984 24.672 20.48 36.128 31.968 25.952 25.92 25.952 68.128 0 94.080-24.192 24.128-65.344 24.864-90.88 2.592l-84.704 199.136c19.232 24.48 36.64 54.912 36.64 88.416 0.032 56.288-42.496 104.64-74.496 128.288v57.984c0 35.296-28.704 64-64 64s-64-28.704-64-64v-57.984c-64-23.648-85.472-72-85.472-128.32 0-33.44 9.184-63.872 28.384-88.32l-94.624-211.648c-3.616 3.296-8.064 6.368-11.552 9.856-25.184 25.12-69.248 25.12-94.432 0-25.952-25.984-26.112-68.192-0.16-94.080 15.424-15.424 32.032-29.088 49.312-41.792l-141.76-321.536c-3.552-8.096 0.096-17.536 8.192-21.12zM384 894.144c0 17.664 14.336 32 32 32s32-14.336 32-32v-46.176c-32 2.368-20.96 3.872-32 3.872s-32-1.504-32-3.872v46.176zM405.056 819.84c61.76 0 112-50.24 112-112s-50.24-112-112-112-112 50.24-112 112 50.272 112 112 112zM316.448 595.2c24.512-19.328 55.040-31.36 88.608-31.36 33.504 0 63.936 11.968 88.448 31.2l83.872-197.184c-51.68-42.208-115.872-65.184-183.648-65.184-61.6 0-120.032 19.2-169.024 54.304l91.744 208.224zM116.608 395.104c6.528 6.496 15.2 10.080 24.448 10.080 9.216 0 17.888-3.584 24.416-10.080 60.896-60.864 142.016-94.4 228.32-94.4 79.744 0 154.784 28.928 213.76 81.28 0.256 0.256 0.576 0.48 0.8 0.736 4.576 4.096 9.28 8 13.664 12.384 13.088 13.024 35.808 12.96 48.832 0 13.44-13.472 13.472-35.36 0-48.832-73.92-73.92-172.32-114.592-277.12-114.592-78.816 0-153.984 23.008-217.824 65.856-1.6 1.984-3.488 3.744-5.984 4.864-0.288 0.128-0.608 0.096-0.896 0.192-18.464 12.992-36.128 27.36-52.416 43.648-13.472 13.472-13.44 35.392 0 48.864z" />
<glyph unicode="&#xe939;" glyph-name="crop" data-tags="crop" d="M1008 64h-848c-8.8 0-16 7.2-16 16v848c0 8.832-7.168 16-16 16s-16-7.168-16-16v-96h-96c-8.832 0-16-7.168-16-16s7.168-16 16-16h96v-720c0-26.464 21.536-48 48-48h720v-96c0-8.832 7.168-16 16-16s16 7.168 16 16v96h96c8.832 0 16 7.168 16 16s-7.168 16-16 16zM896 144c8.832 0 16 7.168 16 16v624c0 26.464-21.536 48-48 48h-624c-8.832 0-16-7.168-16-16s7.168-16 16-16h624c8.8 0 16-7.2 16-16v-624c0-8.832 7.168-16 16-16z" />
<glyph unicode="&#xe93a;" glyph-name="cross" data-tags="cross" d="M512 960c-136.768 0-265.344-53.248-362.016-149.984-96.704-96.672-149.984-225.28-149.984-362.016s53.28-265.344 149.984-362.016c96.672-96.736 225.248-149.984 362.016-149.984s265.344 53.248 362.016 149.984c96.704 96.672 149.984 225.28 149.984 362.016s-53.28 265.344-149.984 362.016c-96.672 96.736-225.248 149.984-362.016 149.984zM851.392 108.608c-90.656-90.656-211.168-140.608-339.392-140.608s-248.736 49.952-339.392 140.608-140.608 211.168-140.608 339.392 49.952 248.736 140.608 339.392 211.168 140.608 339.392 140.608 248.736-49.952 339.392-140.608 140.608-211.168 140.608-339.392-49.952-248.736-140.608-339.392zM704.32 640.352c-6.24 6.24-16.384 6.24-22.624 0l-169.696-169.728-169.696 169.728c-6.24 6.24-16.384 6.24-22.624 0s-6.24-16.384 0-22.624l169.696-169.728-169.696-169.728c-6.24-6.24-6.24-16.384 0-22.624 3.136-3.136 7.232-4.672 11.328-4.672s8.192 1.568 11.328 4.672l169.664 169.728 169.696-169.728c3.136-3.136 7.232-4.672 11.328-4.672s8.192 1.568 11.328 4.672c6.24 6.24 6.24 16.384 0 22.624l-169.728 169.728 169.696 169.728c6.272 6.24 6.272 16.352 0 22.624z" />
<glyph unicode="&#xe93b;" glyph-name="cross-game" data-tags="cross-game" d="M407.488 708.672c3.136-3.104 7.232-4.672 11.328-4.672s8.192 1.568 11.328 4.672l100.672 100.672 100.672-100.672c3.136-3.104 7.232-4.672 11.328-4.672s8.192 1.568 11.328 4.672c6.24 6.24 6.24 16.384 0 22.624l-100.704 100.704 100.672 100.672c6.24 6.24 6.24 16.384 0 22.624s-16.384 6.24-22.624 0l-100.672-100.672-100.672 100.672c-6.24 6.24-16.384 6.24-22.624 0s-6.24-16.384 0-22.624l100.672-100.672-100.672-100.672c-6.272-6.272-6.272-16.384-0.032-22.656zM4.672 310.848c3.136-3.136 7.232-4.672 11.328-4.672s8.192 1.568 11.328 4.672l100.672 100.704 100.672-100.672c3.136-3.136 7.232-4.672 11.328-4.672s8.192 1.568 11.328 4.672c6.24 6.24 6.24 16.384 0 22.624l-100.672 100.672 100.672 100.672c6.24 6.24 6.24 16.384 0 22.624s-16.384 6.24-22.624 0l-100.704-100.672-100.672 100.672c-6.24 6.24-16.384 6.24-22.624 0s-6.24-16.384 0-22.624l100.672-100.672-100.672-100.672c-6.272-6.272-6.272-16.384-0.032-22.656zM772.672 310.848c3.136-3.136 7.232-4.672 11.328-4.672s8.192 1.568 11.328 4.672l100.672 100.704 100.672-100.672c3.136-3.136 7.232-4.672 11.328-4.672s8.192 1.568 11.328 4.672c6.24 6.24 6.24 16.384 0 22.624l-100.672 100.672 100.672 100.672c6.24 6.24 6.24 16.384 0 22.624s-16.384 6.24-22.624 0l-100.704-100.672-100.672 100.672c-6.24 6.24-16.384 6.24-22.624 0s-6.24-16.384 0-22.624l100.672-100.672-100.672-100.672c-6.272-6.272-6.272-16.384-0.032-22.656zM128 704c70.592 0 128 57.408 128 128s-57.408 128-128 128-128-57.408-128-128 57.408-128 128-128zM128 928c52.928 0 96-43.072 96-96s-43.072-96-96-96-96 43.072-96 96 43.072 96 96 96zM896 704c70.592 0 128 57.408 128 128s-57.408 128-128 128-128-57.408-128-128 57.408-128 128-128zM896 928c52.928 0 96-43.072 96-96s-43.072-96-96-96-96 43.072-96 96 43.072 96 96 96zM407.488-59.328c3.136-3.104 7.232-4.672 11.328-4.672s8.192 1.568 11.328 4.672l100.672 100.672 100.672-100.672c3.136-3.104 7.232-4.672 11.328-4.672s8.192 1.568 11.328 4.672c6.24 6.24 6.24 16.384 0 22.624l-100.704 100.704 100.672 100.672c6.24 6.24 6.24 16.384 0 22.624s-16.384 6.24-22.624 0l-100.672-100.672-100.672 100.672c-6.24 6.24-16.384 6.24-22.624 0s-6.24-16.384 0-22.624l100.672-100.672-100.672-100.672c-6.272-6.272-6.272-16.384-0.032-22.656zM896-64c70.592 0 128 57.408 128 128s-57.408 128-128 128-128-57.408-128-128 57.408-128 128-128zM896 160c52.928 0 96-43.072 96-96s-43.072-96-96-96-96 43.072-96 96 43.072 96 96 96zM128-64c70.592 0 128 57.408 128 128s-57.408 128-128 128-128-57.408-128-128 57.408-128 128-128zM128 160c52.928 0 96-43.072 96-96s-43.072-96-96-96-96 43.072-96 96 43.072 96 96 96zM530.816 306.176c70.592 0 128 57.408 128 128s-57.408 128-128 128-128-57.408-128-128 57.408-128 128-128zM530.816 530.176c52.928 0 96-43.072 96-96s-43.072-96-96-96-96 43.072-96 96 43.072 96 96 96z" />
<glyph unicode="&#xe93c;" glyph-name="cross-gap" data-tags="cross-gap" d="M512 960c-282.304 0-512-229.696-512-512s229.696-512 512-512 512 229.696 512 512-229.696 512-512 512zM512-32c-264.672 0-480 215.328-480 480s215.328 480 480 480 480-215.328 480-480-215.328-480-480-480zM565.024 417.6c-6.24 6.24-16.384 6.24-22.624 0s-6.24-16.384 0-22.624l135.776-135.744c3.136-3.136 7.232-4.672 11.328-4.672s8.192 1.568 11.328 4.672c6.24 6.24 6.24 16.384 0 22.624l-135.808 135.744zM345.856 636.768c-6.24 6.24-16.384 6.24-22.624 0s-6.24-16.384 0-22.624l135.776-135.744c3.136-3.136 7.232-4.672 11.328-4.672s8.192 1.568 11.328 4.672c6.24 6.24 6.24 16.384 0 22.624l-135.808 135.744zM458.976 417.6l-135.776-135.744c-6.24-6.24-6.24-16.384 0-22.624 3.136-3.136 7.232-4.672 11.328-4.672s8.192 1.568 11.328 4.672l135.776 135.744c6.24 6.24 6.24 16.384 0 22.624s-16.384 6.24-22.656 0zM678.144 636.768l-135.776-135.744c-6.24-6.24-6.24-16.384 0-22.624 3.136-3.136 7.232-4.672 11.328-4.672s8.192 1.568 11.328 4.672l135.776 135.744c6.24 6.24 6.24 16.384 0 22.624s-16.384 6.272-22.656 0z" />
</font>
</defs>
</svg>
